<?xml version="1.0" standalone="no"?>
<!DOCTYPE svg PUBLIC "-//W3C//DTD SVG 1.1//EN" "http://www.w3.org/Graphics/SVG/1.1/DTD/svg11.dtd" >
<svg xmlns="http://www.w3.org/2000/svg" xmlns:xlink="http://www.w3.org/1999/xlink" version="1.1">
<metadata>
Created by FontForge 20190801 at Thu Dec 19 10:01:09 2019
 By Henrique Beier
Copyright (c) 2019 Banco Bradesco S.A. All rights reserved.
</metadata>
<defs>
<font id="BradescoSans-Light" horiz-adv-x="586" >
  <font-face 
    font-family="Bradesco Sans Light"
    font-weight="300"
    font-stretch="normal"
    units-per-em="1000"
    panose-1="0 0 4 0 0 0 0 0 0 0"
    ascent="800"
    descent="-200"
    x-height="516"
    cap-height="676"
    bbox="-447 -222 1226 967"
    underline-thickness="50"
    underline-position="-100"
    unicode-range="U+0020-FB02"
  />
<missing-glyph horiz-adv-x="472" 
d="M387 -214h-299v944h299v-944zM159 667v-31h61v-35h-62v-31h156v31h-62v35h62v31h-155zM158 545v-98h156v32h-62v66h-94zM220 479h-31v34h31v-34zM158 421v-31h62v-35h-62v-31h94v66h62v31h-156zM283 365v-63h-125v-32h156v95h-31zM220 250v-53h32v21h31v-44h-94v76h-31
v-107h156v107h-94zM158 86v-106h156v106h-156zM283 11h-94v44h94v-44zM158 -42v-31h66l-66 -45v-31h156v31h-96l66 45h30v31h-156z" />
    <glyph glyph-name="fi" unicode="fi" horiz-adv-x="599" 
d="M126 686q47 53 129 53q62 0 112 -41l-25 -36q-38 30 -89 30q-59 0 -91 -39.5t-32 -105.5v-31h225v-45h-225v-471h-51v544q0 89 47 142zM465.5 640q-10.5 11 -10.5 27q0 17 10.5 28.5t27.5 11.5q16 0 27 -11.5t11 -28.5q0 -16 -11 -27t-27 -11q-17 0 -27.5 11zM467 516h50
v-516h-50v516z" />
    <glyph glyph-name="fl" unicode="fl" horiz-adv-x="661" 
d="M126 686q47 53 129 53q62 0 112 -41l-25 -36q-38 30 -89 30q-59 0 -91 -39.5t-32 -105.5v-31h225v-45h-225v-471h-51v544q0 89 47 142zM503 39.5q-39 44.5 -39 127.5v559l50 13v-577q0 -59 27 -90.5t76 -31.5h21v-45h-24q-72 0 -111 44.5z" />
    <glyph glyph-name=".notdef" horiz-adv-x="472" 
d="M387 -214h-299v944h299v-944zM159 667v-31h61v-35h-62v-31h156v31h-62v35h62v31h-155zM158 545v-98h156v32h-62v66h-94zM220 479h-31v34h31v-34zM158 421v-31h62v-35h-62v-31h94v66h62v31h-156zM283 365v-63h-125v-32h156v95h-31zM220 250v-53h32v21h31v-44h-94v76h-31
v-107h156v107h-94zM158 86v-106h156v106h-156zM283 11h-94v44h94v-44zM158 -42v-31h66l-66 -45v-31h156v31h-96l66 45h30v31h-156z" />
    <glyph glyph-name="space" unicode=" " horiz-adv-x="255" 
 />
    <glyph glyph-name="A" unicode="A" horiz-adv-x="629" 
d="M292 676h47l265 -676h-54l-78 205h-316l-80 -205h-51zM453 253l-139 360l-139 -360h278z" />
    <glyph glyph-name="Aacute" unicode="&#xc1;" horiz-adv-x="629" 
d="M292 676h47l265 -676h-54l-78 205h-316l-80 -205h-51zM453 253l-139 360l-139 -360h278zM386 866h69l-131 -122h-60z" />
    <glyph glyph-name="Acircumflex" unicode="&#xc2;" horiz-adv-x="629" 
d="M292 676h47l265 -676h-54l-78 205h-316l-80 -205h-51zM453 253l-139 360l-139 -360h278zM287 866h56l119 -122h-59l-89 85l-89 -85h-58z" />
    <glyph glyph-name="Adieresis" unicode="&#xc4;" horiz-adv-x="629" 
d="M292 676h47l265 -676h-54l-78 205h-316l-80 -205h-51zM453 253l-139 360l-139 -360h278zM201 772.5q-11 10.5 -11 26.5q0 17 11 27.5t28 10.5q16 0 27.5 -11t11.5 -27t-11 -26.5t-28 -10.5t-28 10.5zM373 772.5q-11 10.5 -11 26.5t11 27t28 11t28 -10.5t11 -27.5
q0 -16 -11 -26.5t-28 -10.5t-28 10.5z" />
    <glyph glyph-name="Agrave" unicode="&#xc0;" horiz-adv-x="629" 
d="M292 676h47l265 -676h-54l-78 205h-316l-80 -205h-51zM453 253l-139 360l-139 -360h278zM176 866h69l122 -122h-60z" />
    <glyph glyph-name="Aring" unicode="&#xc5;" horiz-adv-x="629" 
d="M604 0h-54l-78 205h-316l-80 -205h-51l257 650q-37 10 -60.5 40.5t-23.5 69.5q0 47 34.5 80.5t81.5 33.5q31 0 58 -15.5t43 -41.5t16 -57q0 -39 -23 -68.5t-59 -41.5zM262 706q22 -22 52 -22q31 0 53 21.5t22 54.5q0 32 -22 53t-53 21t-52.5 -21t-21.5 -53t22 -54z
M175 253h278l-139 360z" />
    <glyph glyph-name="Atilde" unicode="&#xc3;" horiz-adv-x="629" 
d="M292 676h47l265 -676h-54l-78 205h-316l-80 -205h-51zM453 253l-139 360l-139 -360h278zM350.5 767.5q-17.5 6.5 -37.5 19.5q-33 21 -59 21q-41 0 -91 -39v46q45 37 90 37q39 0 75 -24q17 -11 31.5 -17t30.5 -6q26 0 48 10.5t44 28.5v-47q-43 -36 -91 -36
q-23 0 -40.5 6.5z" />
    <glyph glyph-name="AE" unicode="&#xc6;" horiz-adv-x="966" 
d="M489 676h426v-49h-361v-252h316v-50h-316v-275h373v-50h-424v199h-297l-141 -199h-58zM503 245v371l-263 -371h263z" />
    <glyph glyph-name="B" unicode="B" horiz-adv-x="588" 
d="M298 676q95 0 148.5 -48t53.5 -128q0 -51 -24.5 -89t-69.5 -59q62 -16 97.5 -60.5t35.5 -106.5q0 -87 -55 -136t-152 -49h-241v676h207zM409.5 402q40.5 34 40.5 98t-41 97.5t-119 33.5h-151v-263h155q75 0 115.5 34zM488 185q0 62 -43 99t-117 37h-189v-276h184
q165 0 165 140z" />
    <glyph glyph-name="C" unicode="C" horiz-adv-x="645" 
d="M203.5 34q-69.5 44 -107.5 123t-38 182q0 101 40 180t111 123t162 44q62 0 116 -25.5t95 -71.5l-34 -33q-35 39 -80 60t-98 21q-77 0 -136 -37.5t-92 -105t-33 -155.5t32.5 -156t90.5 -106t133 -38q109 0 194 80l33 -34q-95 -95 -228 -95q-91 0 -160.5 44z" />
    <glyph glyph-name="Ccedilla" unicode="&#xc7;" horiz-adv-x="645" 
d="M387 -9q31 -36 31 -74q0 -47 -34.5 -71.5t-91.5 -24.5h-20v44h19q35 0 57 14t22 43q0 32 -34 69q-83 7 -146 52.5t-97.5 121.5t-34.5 174q0 101 40 180t111 123t162 44q62 0 116 -25.5t95 -71.5l-34 -33q-35 39 -80 60t-98 21q-77 0 -136 -37.5t-92 -105t-33 -155.5
t32.5 -156t90.5 -106t133 -38q109 0 194 80l33 -34q-87 -87 -205 -94z" />
    <glyph glyph-name="D" unicode="D" horiz-adv-x="669" 
d="M283 676q101 0 175 -42t113.5 -118t39.5 -176q0 -98 -40.5 -175t-114.5 -121t-172 -44h-193v676h192zM431 85q62 37 95 103.5t33 152.5q0 85 -32.5 150t-94.5 101t-148 36h-142v-580h142q85 0 147 37z" />
    <glyph glyph-name="Eth" unicode="&#xd0;" horiz-adv-x="690" 
d="M18 315v46h95v315h192q101 0 175 -42t113.5 -118t39.5 -176q0 -98 -40.5 -175t-114.5 -121t-172 -44h-193v315h-95zM453 85q62 37 95 103.5t33 152.5q0 85 -32.5 150t-94.5 101t-148 36h-142v-267h217v-46h-217v-267h142q85 0 147 37z" />
    <glyph glyph-name="E" unicode="E" horiz-adv-x="554" 
d="M91 676h412v-49h-361v-252h316v-50h-316v-275h373v-50h-424v676z" />
    <glyph glyph-name="Eacute" unicode="&#xc9;" horiz-adv-x="554" 
d="M91 676h412v-49h-361v-252h316v-50h-316v-275h373v-50h-424v676zM372 866h69l-131 -122h-60z" />
    <glyph glyph-name="Ecircumflex" unicode="&#xca;" horiz-adv-x="554" 
d="M91 676h412v-49h-361v-252h316v-50h-316v-275h373v-50h-424v676zM273 866h56l119 -122h-59l-89 85l-89 -85h-58z" />
    <glyph glyph-name="Edieresis" unicode="&#xcb;" horiz-adv-x="554" 
d="M91 676h412v-49h-361v-252h316v-50h-316v-275h373v-50h-424v676zM187 772.5q-11 10.5 -11 26.5q0 17 11 27.5t28 10.5q16 0 27.5 -11t11.5 -27t-11 -26.5t-28 -10.5t-28 10.5zM359 772.5q-11 10.5 -11 26.5t11 27t28 11t28 -10.5t11 -27.5q0 -16 -11 -26.5t-28 -10.5
t-28 10.5z" />
    <glyph glyph-name="Egrave" unicode="&#xc8;" horiz-adv-x="554" 
d="M91 676h412v-49h-361v-252h316v-50h-316v-275h373v-50h-424v676zM162 866h69l122 -122h-60z" />
    <glyph glyph-name="F" unicode="F" horiz-adv-x="554" 
d="M91 676h416v-49h-365v-252h318v-50h-318v-325h-51v676z" />
    <glyph glyph-name="G" unicode="G" horiz-adv-x="667" 
d="M202.5 33.5q-68.5 43.5 -106.5 122.5t-38 183q0 102 40.5 181t113 122.5t165.5 43.5q62 0 117 -26t94 -71l-32 -32q-73 80 -180 80q-79 0 -139.5 -37t-94 -105t-33.5 -156t32 -156t89.5 -106t133.5 -38q58 0 103 17t85 50v183h-198v48h248v-252q-48 -46 -110 -70.5
t-130 -24.5q-91 0 -159.5 43.5z" />
    <glyph glyph-name="H" unicode="H" horiz-adv-x="662" 
d="M91 676h51v-301h378v301h51v-676h-51v325h-378v-325h-51v676z" />
    <glyph glyph-name="I" unicode="I" horiz-adv-x="233" 
d="M91 676h51v-676h-51v676z" />
    <glyph glyph-name="Iacute" unicode="&#xcd;" horiz-adv-x="233" 
d="M91 676h51v-676h-51v676zM184 866h63l-105 -122h-54z" />
    <glyph glyph-name="Icircumflex" unicode="&#xce;" horiz-adv-x="233" 
d="M91 676h51v-676h-51v676zM89 866h56l119 -122h-59l-89 85l-89 -85h-58z" />
    <glyph glyph-name="Idieresis" unicode="&#xcf;" horiz-adv-x="233" 
d="M91 676h51v-676h-51v676zM3 772.5q-11 10.5 -11 26.5q0 17 11 27.5t28 10.5q16 0 27.5 -11t11.5 -27t-11 -26.5t-28 -10.5t-28 10.5zM175 772.5q-11 10.5 -11 26.5t11 27t28 11t28 -10.5t11 -27.5q0 -16 -11 -26.5t-28 -10.5t-28 10.5z" />
    <glyph glyph-name="Igrave" unicode="&#xcc;" horiz-adv-x="233" 
d="M91 676h51v-676h-51v676zM-13 866h63l97 -122h-55z" />
    <glyph glyph-name="J" unicode="J" horiz-adv-x="364" 
d="M75 49q73 0 113 43.5t40 120.5v463h51v-459q0 -103 -53 -160t-151 -57h-46v49h46z" />
    <glyph glyph-name="K" unicode="K" horiz-adv-x="637" 
d="M142 676v-303h107q40 0 66.5 12.5t46 36.5t47.5 70l113 184h56l-128 -208q-26 -42 -47.5 -68.5t-46.5 -42.5l262 -357h-62l-247 334q-27 -9 -65 -9h-102v-325h-51v676h51z" />
    <glyph glyph-name="L" unicode="L" horiz-adv-x="538" 
d="M91 676h51v-626h360v-50h-411v676z" />
    <glyph glyph-name="M" unicode="M" horiz-adv-x="837" 
d="M91 676h50l267 -479l290 479h48v-676h-51v583l-267 -440h-42l-245 435v-578h-50v676z" />
    <glyph glyph-name="N" unicode="N" horiz-adv-x="664" 
d="M91 676h42l391 -581v581h49v-676h-42l-391 581v-581h-49v676z" />
    <glyph glyph-name="Ntilde" unicode="&#xd1;" horiz-adv-x="664" 
d="M91 676h42l391 -581v581h49v-676h-42l-391 581v-581h-49v676zM368.5 767.5q-17.5 6.5 -37.5 19.5q-33 21 -59 21q-41 0 -91 -39v46q45 37 90 37q39 0 75 -24q17 -11 31.5 -17t30.5 -6q26 0 48 10.5t44 28.5v-47q-43 -36 -91 -36q-23 0 -40.5 6.5z" />
    <glyph glyph-name="O" unicode="O" horiz-adv-x="730" 
d="M206 34.5q-70 44.5 -109 124.5t-39 181q0 97 40 176t110 124.5t157 45.5q88 0 158 -44.5t109.5 -123t39.5 -178.5q0 -99 -40 -179t-110 -125.5t-157 -45.5q-89 0 -159 44.5zM496.5 78q58.5 39 91.5 107.5t33 154.5t-32.5 153.5t-91 105.5t-132.5 38t-132.5 -39
t-91 -106.5t-32.5 -151.5q0 -86 32.5 -154.5t90.5 -107.5t133 -39q73 0 131.5 39z" />
    <glyph glyph-name="Oacute" unicode="&#xd3;" horiz-adv-x="730" 
d="M206 34.5q-70 44.5 -109 124.5t-39 181q0 97 40 176t110 124.5t157 45.5q88 0 158 -44.5t109.5 -123t39.5 -178.5q0 -99 -40 -179t-110 -125.5t-157 -45.5q-89 0 -159 44.5zM496.5 78q58.5 39 91.5 107.5t33 154.5t-32.5 153.5t-91 105.5t-132.5 38t-132.5 -39
t-91 -106.5t-32.5 -151.5q0 -86 32.5 -154.5t90.5 -107.5t133 -39q73 0 131.5 39zM437 866h69l-131 -122h-60z" />
    <glyph glyph-name="Ocircumflex" unicode="&#xd4;" horiz-adv-x="730" 
d="M206 34.5q-70 44.5 -109 124.5t-39 181q0 97 40 176t110 124.5t157 45.5q88 0 158 -44.5t109.5 -123t39.5 -178.5q0 -99 -40 -179t-110 -125.5t-157 -45.5q-89 0 -159 44.5zM496.5 78q58.5 39 91.5 107.5t33 154.5t-32.5 153.5t-91 105.5t-132.5 38t-132.5 -39
t-91 -106.5t-32.5 -151.5q0 -86 32.5 -154.5t90.5 -107.5t133 -39q73 0 131.5 39zM338 866h56l119 -122h-59l-89 85l-89 -85h-58z" />
    <glyph glyph-name="Odieresis" unicode="&#xd6;" horiz-adv-x="730" 
d="M206 34.5q-70 44.5 -109 124.5t-39 181q0 97 40 176t110 124.5t157 45.5q88 0 158 -44.5t109.5 -123t39.5 -178.5q0 -99 -40 -179t-110 -125.5t-157 -45.5q-89 0 -159 44.5zM496.5 78q58.5 39 91.5 107.5t33 154.5t-32.5 153.5t-91 105.5t-132.5 38t-132.5 -39
t-91 -106.5t-32.5 -151.5q0 -86 32.5 -154.5t90.5 -107.5t133 -39q73 0 131.5 39zM252 772.5q-11 10.5 -11 26.5q0 17 11 27.5t28 10.5q16 0 27.5 -11t11.5 -27t-11 -26.5t-28 -10.5t-28 10.5zM424 772.5q-11 10.5 -11 26.5t11 27t28 11t28 -10.5t11 -27.5q0 -16 -11 -26.5
t-28 -10.5t-28 10.5z" />
    <glyph glyph-name="Ograve" unicode="&#xd2;" horiz-adv-x="730" 
d="M206 34.5q-70 44.5 -109 124.5t-39 181q0 97 40 176t110 124.5t157 45.5q88 0 158 -44.5t109.5 -123t39.5 -178.5q0 -99 -40 -179t-110 -125.5t-157 -45.5q-89 0 -159 44.5zM496.5 78q58.5 39 91.5 107.5t33 154.5t-32.5 153.5t-91 105.5t-132.5 38t-132.5 -39
t-91 -106.5t-32.5 -151.5q0 -86 32.5 -154.5t90.5 -107.5t133 -39q73 0 131.5 39zM226 866h69l122 -122h-60z" />
    <glyph glyph-name="Oslash" unicode="&#xd8;" horiz-adv-x="730" 
d="M80 198.5q-22 64.5 -22 141.5q0 97 40 176t110 124.5t157 45.5q111 0 190 -68l72 93h56l-96 -124q41 -46 63 -109.5t22 -137.5q0 -99 -40 -179t-110 -125.5t-157 -45.5q-109 0 -189 66l-71 -92h-56l95 123q-42 47 -64 111.5zM365 637q-74 0 -132.5 -39t-91 -106.5
t-32.5 -151.5q0 -62 17.5 -116t50.5 -95l348 450q-67 58 -160 58zM496.5 77.5q58.5 39.5 91.5 108t33 154.5q0 61 -17 113.5t-48 92.5l-348 -450q68 -58 157 -58q73 0 131.5 39.5z" />
    <glyph glyph-name="Otilde" unicode="&#xd5;" horiz-adv-x="730" 
d="M206 34.5q-70 44.5 -109 124.5t-39 181q0 97 40 176t110 124.5t157 45.5q88 0 158 -44.5t109.5 -123t39.5 -178.5q0 -99 -40 -179t-110 -125.5t-157 -45.5q-89 0 -159 44.5zM496.5 78q58.5 39 91.5 107.5t33 154.5t-32.5 153.5t-91 105.5t-132.5 38t-132.5 -39
t-91 -106.5t-32.5 -151.5q0 -86 32.5 -154.5t90.5 -107.5t133 -39q73 0 131.5 39zM401.5 767.5q-17.5 6.5 -37.5 19.5q-33 21 -59 21q-41 0 -91 -39v46q45 37 90 37q39 0 75 -24q17 -11 31.5 -17t30.5 -6q26 0 48 10.5t44 28.5v-47q-43 -36 -91 -36q-23 0 -40.5 6.5z" />
    <glyph glyph-name="OE" unicode="&#x152;" horiz-adv-x="1085" 
d="M205.5 34.5q-69.5 44.5 -108.5 124t-39 181.5q0 97 40 176t110 124.5t156 45.5q87 0 154 -43.5t104 -120.5v154h413v-49h-362v-252h317v-50h-317v-275h373v-50h-424v159q-37 -78 -105 -123.5t-153 -45.5q-89 0 -158.5 44.5zM496.5 77.5q58.5 39.5 91.5 109t33 154.5
q0 86 -32.5 153.5t-91 105.5t-132.5 38t-132.5 -39t-91 -107t-32.5 -151q0 -86 32 -155t90.5 -108.5t133.5 -39.5q73 0 131.5 39.5z" />
    <glyph glyph-name="P" unicode="P" horiz-adv-x="584" 
d="M308 676q104 0 164 -55.5t60 -148.5q0 -60 -27.5 -106t-78 -71.5t-118.5 -25.5h-167v-269h-50v676h217zM433 357.5q47 39.5 47 114.5q0 76 -46.5 116t-133.5 40h-159v-310h159q86 0 133 39.5z" />
    <glyph glyph-name="Thorn" unicode="&#xde;" 
d="M141 676v-99h167q103 0 163.5 -56t60.5 -148q0 -60 -27.5 -106t-78 -71.5t-118.5 -25.5h-167v-170h-50v676h50zM432.5 258.5q46.5 39.5 46.5 114.5q0 76 -46 116t-133 40h-159v-310h159q86 0 132.5 39.5z" />
    <glyph glyph-name="Q" unicode="Q" horiz-adv-x="730" 
d="M365 -10q-89 0 -159 44.5t-109 124.5t-39 181q0 97 40 176t110 124.5t157 45.5q88 0 158 -44.5t109.5 -123t39.5 -178.5q0 -83 -28 -153t-79 -118l99 -131l-40 -28l-97 129q-73 -49 -162 -49zM498 79l-92 122l39 28l90 -120q41 42 63.5 101.5t22.5 129.5q0 86 -32.5 154
t-91 106t-132.5 38t-132.5 -39t-91 -107t-32.5 -152q0 -86 32.5 -155t90.5 -108t133 -39q73 0 133 41z" />
    <glyph glyph-name="R" unicode="R" horiz-adv-x="595" 
d="M299 676q104 0 163.5 -51t59.5 -141q0 -66 -39 -113t-107 -64q34 -18 61.5 -51.5t58.5 -94.5l81 -161h-57l-69 136q-28 56 -51 87t-59 49.5t-93 18.5h-107v-291h-50v676h208zM424.5 377q46.5 38 46.5 106q0 145 -179 145h-151v-289h151q86 0 132.5 38z" />
    <glyph glyph-name="S" unicode="S" horiz-adv-x="570" 
d="M36 92l33 33q46 -45 100 -66t121 -21q83 0 130 34t47 95q0 64 -45.5 98.5t-146.5 57.5q-78 18 -125 41.5t-70 59t-23 90.5q0 47 29 86.5t80 62.5t116 23q122 0 209 -89l-32 -33q-77 74 -177 74q-80 0 -128 -34.5t-48 -90.5q0 -42 20.5 -68t62 -43t114.5 -33
q110 -26 162 -73.5t52 -125.5q0 -83 -60.5 -131.5t-169.5 -48.5q-149 0 -251 102z" />
    <glyph glyph-name="Scaron" unicode="&#x160;" horiz-adv-x="570" 
d="M36 92l33 33q46 -45 100 -66t121 -21q83 0 130 34t47 95q0 64 -45.5 98.5t-146.5 57.5q-78 18 -125 41.5t-70 59t-23 90.5q0 47 29 86.5t80 62.5t116 23q122 0 209 -89l-32 -33q-77 74 -177 74q-80 0 -128 -34.5t-48 -90.5q0 -42 20.5 -68t62 -43t114.5 -33
q110 -26 162 -73.5t52 -125.5q0 -83 -60.5 -131.5t-169.5 -48.5q-149 0 -251 102zM136 866h59l89 -86l89 86h58l-120 -122h-56z" />
    <glyph glyph-name="uni1E9E" unicode="&#x1e9e;" horiz-adv-x="664" 
d="M304.5 9q-48.5 19 -90.5 58l29 34q41 -35 78.5 -49.5t85.5 -14.5q73 0 117 38t44 100q0 69 -49 110t-133 41h-64v36l182 221q-65 56 -157 56q-100 0 -155.5 -64t-55.5 -186v-389h-51v389q0 92 32.5 159t91.5 102.5t137 35.5q126 0 220 -92l-186 -225l26 -1
q62 0 110 -24.5t75 -67t27 -97.5q0 -56 -26 -99t-73 -66.5t-108 -23.5q-58 0 -106.5 19z" />
    <glyph glyph-name="T" unicode="T" horiz-adv-x="607" 
d="M278 627h-240v49h531v-49h-240v-627h-51v627z" />
    <glyph glyph-name="U" unicode="U" horiz-adv-x="675" 
d="M147.5 74q-65.5 84 -65.5 238v364h51v-364q0 -132 52 -203t151 -71t152 71.5t53 202.5v364h51v-364q0 -99 -30.5 -171.5t-88 -111.5t-137.5 -39q-123 0 -188.5 84z" />
    <glyph glyph-name="Uacute" unicode="&#xda;" horiz-adv-x="675" 
d="M147.5 74q-65.5 84 -65.5 238v364h51v-364q0 -132 52 -203t151 -71t152 71.5t53 202.5v364h51v-364q0 -99 -30.5 -171.5t-88 -111.5t-137.5 -39q-123 0 -188.5 84zM409 866h69l-131 -122h-60z" />
    <glyph glyph-name="Ucircumflex" unicode="&#xdb;" horiz-adv-x="675" 
d="M147.5 74q-65.5 84 -65.5 238v364h51v-364q0 -132 52 -203t151 -71t152 71.5t53 202.5v364h51v-364q0 -99 -30.5 -171.5t-88 -111.5t-137.5 -39q-123 0 -188.5 84zM310 866h56l119 -122h-59l-89 85l-89 -85h-58z" />
    <glyph glyph-name="Udieresis" unicode="&#xdc;" horiz-adv-x="675" 
d="M147.5 74q-65.5 84 -65.5 238v364h51v-364q0 -132 52 -203t151 -71t152 71.5t53 202.5v364h51v-364q0 -99 -30.5 -171.5t-88 -111.5t-137.5 -39q-123 0 -188.5 84zM224 772.5q-11 10.5 -11 26.5q0 17 11 27.5t28 10.5q16 0 27.5 -11t11.5 -27t-11 -26.5t-28 -10.5
t-28 10.5zM396 772.5q-11 10.5 -11 26.5t11 27t28 11t28 -10.5t11 -27.5q0 -16 -11 -26.5t-28 -10.5t-28 10.5z" />
    <glyph glyph-name="Ugrave" unicode="&#xd9;" horiz-adv-x="675" 
d="M147.5 74q-65.5 84 -65.5 238v364h51v-364q0 -132 52 -203t151 -71t152 71.5t53 202.5v364h51v-364q0 -99 -30.5 -171.5t-88 -111.5t-137.5 -39q-123 0 -188.5 84zM198 866h69l122 -122h-60z" />
    <glyph glyph-name="V" unicode="V" horiz-adv-x="629" 
d="M26 676h55l234 -608l236 608h52l-266 -676h-47z" />
    <glyph glyph-name="W" unicode="W" horiz-adv-x="933" 
d="M33 676h54l170 -604l189 564h50l179 -564l173 604h52l-200 -676h-49l-184 564l-185 -564h-50z" />
    <glyph glyph-name="Wacute" unicode="&#x1e82;" horiz-adv-x="933" 
d="M33 676h54l170 -604l189 564h50l179 -564l173 604h52l-200 -676h-49l-184 564l-185 -564h-50zM538 866h69l-131 -122h-60z" />
    <glyph glyph-name="Wcircumflex" unicode="&#x174;" horiz-adv-x="933" 
d="M33 676h54l170 -604l189 564h50l179 -564l173 604h52l-200 -676h-49l-184 564l-185 -564h-50zM439 866h56l119 -122h-59l-89 85l-89 -85h-58z" />
    <glyph glyph-name="Wdieresis" unicode="&#x1e84;" horiz-adv-x="933" 
d="M33 676h54l170 -604l189 564h50l179 -564l173 604h52l-200 -676h-49l-184 564l-185 -564h-50zM353 772.5q-11 10.5 -11 26.5q0 17 11 27.5t28 10.5q16 0 27.5 -11t11.5 -27t-11 -26.5t-28 -10.5t-28 10.5zM525 772.5q-11 10.5 -11 26.5t11 27t28 11t28 -10.5t11 -27.5
q0 -16 -11 -26.5t-28 -10.5t-28 10.5z" />
    <glyph glyph-name="Wgrave" unicode="&#x1e80;" horiz-adv-x="933" 
d="M33 676h54l170 -604l189 564h50l179 -564l173 604h52l-200 -676h-49l-184 564l-185 -564h-50zM327 866h69l122 -122h-60z" />
    <glyph glyph-name="X" unicode="X" horiz-adv-x="629" 
d="M283 356l-228 320h62l198 -282l200 282h58l-229 -320l254 -356h-62l-224 315l-223 -315h-58z" />
    <glyph glyph-name="Y" unicode="Y" horiz-adv-x="546" 
d="M247 263l-227 413h55l198 -365l199 365h55l-229 -413v-263h-51v263z" />
    <glyph glyph-name="Yacute" unicode="&#xdd;" horiz-adv-x="546" 
d="M247 263l-227 413h55l198 -365l199 365h55l-229 -413v-263h-51v263zM344 866h69l-131 -122h-60z" />
    <glyph glyph-name="Ycircumflex" unicode="&#x176;" horiz-adv-x="546" 
d="M247 263l-227 413h55l198 -365l199 365h55l-229 -413v-263h-51v263zM245 866h56l119 -122h-59l-89 85l-89 -85h-58z" />
    <glyph glyph-name="Ydieresis" unicode="&#x178;" horiz-adv-x="546" 
d="M247 263l-227 413h55l198 -365l199 365h55l-229 -413v-263h-51v263zM159 772.5q-11 10.5 -11 26.5q0 17 11 27.5t28 10.5q16 0 27.5 -11t11.5 -27t-11 -26.5t-28 -10.5t-28 10.5zM331 772.5q-11 10.5 -11 26.5t11 27t28 11t28 -10.5t11 -27.5q0 -16 -11 -26.5t-28 -10.5
t-28 10.5z" />
    <glyph glyph-name="Ygrave" unicode="&#x1ef2;" horiz-adv-x="546" 
d="M247 263l-227 413h55l198 -365l199 365h55l-229 -413v-263h-51v263zM134 866h69l122 -122h-60z" />
    <glyph glyph-name="Z" unicode="Z" horiz-adv-x="596" 
d="M42 40l439 587h-425v49h491v-39l-439 -587h450v-50h-516v40z" />
    <glyph glyph-name="Zcaron" unicode="&#x17d;" horiz-adv-x="596" 
d="M42 40l439 587h-425v49h491v-39l-439 -587h450v-50h-516v40zM152 866h59l89 -86l89 86h58l-120 -122h-56z" />
    <glyph glyph-name="a" unicode="a" horiz-adv-x="527" 
d="M95.5 28.5q-42.5 38.5 -42.5 103.5q0 70 53.5 110.5t147.5 40.5h151v30q0 85 -36 125.5t-111 40.5q-41 0 -80.5 -17.5t-70.5 -48.5l-33 31q35 38 84 60t101 22q195 0 195 -219v-307h-32l-15 81q-39 -42 -90 -66.5t-106 -24.5q-73 0 -115.5 38.5zM318 62q50 26 87 70v107
h-153q-70 0 -110 -28t-40 -78q0 -44 31 -70.5t82 -26.5q53 0 103 26z" />
    <glyph glyph-name="aacute" unicode="&#xe1;" horiz-adv-x="527" 
d="M95.5 28.5q-42.5 38.5 -42.5 103.5q0 70 53.5 110.5t147.5 40.5h151v30q0 85 -36 125.5t-111 40.5q-41 0 -80.5 -17.5t-70.5 -48.5l-33 31q35 38 84 60t101 22q195 0 195 -219v-307h-32l-15 81q-39 -42 -90 -66.5t-106 -24.5q-73 0 -115.5 38.5zM318 62q50 26 87 70v107
h-153q-70 0 -110 -28t-40 -78q0 -44 31 -70.5t82 -26.5q53 0 103 26zM334 730h66l-130 -131h-58z" />
    <glyph glyph-name="acircumflex" unicode="&#xe2;" horiz-adv-x="527" 
d="M95.5 28.5q-42.5 38.5 -42.5 103.5q0 70 53.5 110.5t147.5 40.5h151v30q0 85 -36 125.5t-111 40.5q-41 0 -80.5 -17.5t-70.5 -48.5l-33 31q35 38 84 60t101 22q195 0 195 -219v-307h-32l-15 81q-39 -42 -90 -66.5t-106 -24.5q-73 0 -115.5 38.5zM318 62q50 26 87 70v107
h-153q-70 0 -110 -28t-40 -78q0 -44 31 -70.5t82 -26.5q53 0 103 26zM235 730h53l118 -131h-56l-89 93l-89 -93h-55z" />
    <glyph glyph-name="adieresis" unicode="&#xe4;" horiz-adv-x="527" 
d="M95.5 28.5q-42.5 38.5 -42.5 103.5q0 70 53.5 110.5t147.5 40.5h151v30q0 85 -36 125.5t-111 40.5q-41 0 -80.5 -17.5t-70.5 -48.5l-33 31q35 38 84 60t101 22q195 0 195 -219v-307h-32l-15 81q-39 -42 -90 -66.5t-106 -24.5q-73 0 -115.5 38.5zM318 62q50 26 87 70v107
h-153q-70 0 -110 -28t-40 -78q0 -44 31 -70.5t82 -26.5q53 0 103 26zM148.5 640q-10.5 11 -10.5 27q0 17 10.5 28.5t27.5 11.5q16 0 27 -11.5t11 -28.5q0 -16 -11 -27t-27 -11q-17 0 -27.5 11zM320.5 640q-10.5 11 -10.5 27q0 17 10.5 28.5t26.5 11.5q17 0 28 -11.5
t11 -28.5q0 -16 -11 -27t-28 -11q-16 0 -26.5 11z" />
    <glyph glyph-name="agrave" unicode="&#xe0;" horiz-adv-x="527" 
d="M95.5 28.5q-42.5 38.5 -42.5 103.5q0 70 53.5 110.5t147.5 40.5h151v30q0 85 -36 125.5t-111 40.5q-41 0 -80.5 -17.5t-70.5 -48.5l-33 31q35 38 84 60t101 22q195 0 195 -219v-307h-32l-15 81q-39 -42 -90 -66.5t-106 -24.5q-73 0 -115.5 38.5zM318 62q50 26 87 70v107
h-153q-70 0 -110 -28t-40 -78q0 -44 31 -70.5t82 -26.5q53 0 103 26zM125 730h67l121 -131h-58z" />
    <glyph glyph-name="aring" unicode="&#xe5;" horiz-adv-x="527" 
d="M95.5 28.5q-42.5 38.5 -42.5 103.5q0 70 53.5 110.5t147.5 40.5h151v30q0 85 -36 125.5t-111 40.5q-41 0 -80.5 -17.5t-70.5 -48.5l-33 31q35 38 84 60t101 22q195 0 195 -219v-307h-32l-15 81q-39 -42 -90 -66.5t-106 -24.5q-73 0 -115.5 38.5zM318 62q50 26 87 70v107
h-153q-70 0 -110 -28t-40 -78q0 -44 31 -70.5t82 -26.5q53 0 103 26zM179.5 624.5q-34.5 33.5 -34.5 81.5t34.5 81t81.5 33t82 -33.5t35 -80.5q0 -49 -35 -82t-82 -33t-81.5 33.5zM314 651.5q22 21.5 22 54.5q0 32 -22 53t-53 21t-52.5 -21t-21.5 -53t21.5 -54t52.5 -22
t53 21.5z" />
    <glyph glyph-name="atilde" unicode="&#xe3;" horiz-adv-x="527" 
d="M95.5 28.5q-42.5 38.5 -42.5 103.5q0 70 53.5 110.5t147.5 40.5h151v30q0 85 -36 125.5t-111 40.5q-41 0 -80.5 -17.5t-70.5 -48.5l-33 31q35 38 84 60t101 22q195 0 195 -219v-307h-32l-15 81q-39 -42 -90 -66.5t-106 -24.5q-73 0 -115.5 38.5zM318 62q50 26 87 70v107
h-153q-70 0 -110 -28t-40 -78q0 -44 31 -70.5t82 -26.5q53 0 103 26zM301.5 622.5q-15.5 6.5 -42.5 20.5q-23 13 -35.5 18.5t-28.5 5.5q-21 0 -41.5 -10.5t-44.5 -31.5v48q23 20 43 29.5t43 9.5q19 0 34 -5.5t28 -12l17 -8.5q5 -3 18 -10t24.5 -11t22.5 -4q24 0 43.5 11
t43.5 31v-48q-23 -19 -42.5 -29t-45.5 -10q-21 0 -36.5 6.5z" />
    <glyph glyph-name="ae" unicode="&#xe6;" horiz-adv-x="908" 
d="M95.5 28.5q-42.5 38.5 -42.5 103.5q0 71 53.5 112t147.5 41h151v28q0 85 -36 125.5t-111 40.5q-41 0 -80.5 -17.5t-70.5 -48.5l-33 31q35 38 84 60t101 22q145 0 179 -127q30 59 82 93t118 34q67 0 116.5 -33t76 -92.5t26.5 -138.5v-18h-402q4 -93 57 -150t139 -57
q41 0 78.5 16t68.5 44l32 -31q-81 -76 -179 -76q-71 0 -124.5 30.5t-84.5 86.5q-44 -54 -104.5 -85.5t-126.5 -31.5q-73 0 -115.5 38.5zM756.5 429q-44.5 52 -121.5 52q-75 0 -124 -53t-55 -140h349q-4 89 -48.5 141zM331.5 65.5q55.5 30.5 92.5 81.5q-15 42 -18 94h-154
q-70 0 -110 -28.5t-40 -79.5q0 -44 31 -71t82 -27q61 0 116.5 30.5z" />
    <glyph glyph-name="b" unicode="b" horiz-adv-x="589" 
d="M199.5 10.5q-44.5 18.5 -76.5 49.5l-12 -60h-32v726l51 13v-298q36 40 84 62.5t98 22.5q67 0 118 -32.5t79 -92.5t28 -140q0 -81 -32.5 -142t-89.5 -94t-128 -33q-43 0 -87.5 18.5zM430.5 97q55.5 58 55.5 163q0 104 -47 161.5t-131 57.5q-51 0 -97 -25t-81 -69v-279
q34 -30 73.5 -48.5t79.5 -18.5q92 0 147.5 58z" />
    <glyph glyph-name="c" unicode="c" horiz-adv-x="517" 
d="M167 23.5q-55 33.5 -85 94.5t-30 140q0 78 31.5 139t87.5 95t127 34q51 0 93.5 -20.5t73.5 -55.5l-33 -32q-55 61 -134 61q-58 0 -102.5 -27.5t-69 -77.5t-24.5 -116q0 -65 24.5 -115.5t68 -78.5t99.5 -28q83 0 147 62l32 -32q-74 -76 -180 -76q-71 0 -126 33.5z" />
    <glyph glyph-name="ccedilla" unicode="&#xe7;" horiz-adv-x="517" 
d="M314 -9q31 -38 31 -74q0 -46 -34 -70t-89 -24h-21v42h20q34 0 55.5 14.5t21.5 43.5q0 32 -35 69q-63 6 -111 41t-74 93t-26 132q0 78 31.5 139t87.5 95t127 34q51 0 93.5 -20.5t73.5 -55.5l-33 -32q-55 61 -134 61q-58 0 -102.5 -27.5t-69 -77.5t-24.5 -116
q0 -65 24.5 -115.5t68 -78.5t99.5 -28q83 0 147 62l32 -32q-66 -68 -159 -75z" />
    <glyph glyph-name="d" unicode="d" horiz-adv-x="589" 
d="M159 22.5q-51 32.5 -79 92.5t-28 141t32.5 142t89.5 94.5t128 33.5q42 0 84 -16t74 -42v258l50 13v-739h-32l-15 78q-36 -41 -85 -64.5t-101 -23.5q-67 0 -118 32.5zM379 62.5q46 25.5 81 70.5v284q-34 29 -73.5 46t-80.5 17q-92 0 -147.5 -59t-55.5 -164
q0 -104 47.5 -162t131.5 -58q51 0 97 25.5z" />
    <glyph glyph-name="eth" unicode="&#xf0;" 
d="M167.5 23q-55.5 33 -86.5 91t-31 131t30.5 131.5t85.5 92t126 33.5q46 0 92.5 -16.5t77.5 -41.5q-27 84 -88 155l-143 -41v42l111 33q-47 47 -118 91l56 15q63 -41 113 -91l122 35v-42l-93 -27q114 -140 114 -329q0 -84 -29.5 -151t-85 -105.5t-128.5 -38.5
q-70 0 -125.5 33zM396.5 68q43.5 32 66.5 88t23 127q0 55 -9 100q-35 33 -81 53t-95 20q-93 0 -147 -57t-54 -153q0 -58 24.5 -106t68.5 -76t100 -28q60 0 103.5 32z" />
    <glyph glyph-name="e" unicode="e" horiz-adv-x="554" 
d="M167.5 24.5q-55.5 34.5 -85.5 96t-30 140.5q0 76 29.5 136.5t83 94.5t120.5 34t116.5 -33t75.5 -92.5t26 -138.5v-16h-401q3 -93 56.5 -151t139.5 -58q41 0 79 15.5t68 44.5l32 -31q-78 -76 -180 -76q-74 0 -129.5 34.5zM402.5 430q-44.5 51 -120.5 51
q-75 0 -123.5 -52.5t-55.5 -137.5h349q-5 88 -49.5 139z" />
    <glyph glyph-name="eacute" unicode="&#xe9;" horiz-adv-x="554" 
d="M167.5 24.5q-55.5 34.5 -85.5 96t-30 140.5q0 76 29.5 136.5t83 94.5t120.5 34t116.5 -33t75.5 -92.5t26 -138.5v-16h-401q3 -93 56.5 -151t139.5 -58q41 0 79 15.5t68 44.5l32 -31q-78 -76 -180 -76q-74 0 -129.5 34.5zM402.5 430q-44.5 51 -120.5 51
q-75 0 -123.5 -52.5t-55.5 -137.5h349q-5 88 -49.5 139zM355 730h66l-130 -131h-58z" />
    <glyph glyph-name="ecircumflex" unicode="&#xea;" horiz-adv-x="554" 
d="M167.5 24.5q-55.5 34.5 -85.5 96t-30 140.5q0 76 29.5 136.5t83 94.5t120.5 34t116.5 -33t75.5 -92.5t26 -138.5v-16h-401q3 -93 56.5 -151t139.5 -58q41 0 79 15.5t68 44.5l32 -31q-78 -76 -180 -76q-74 0 -129.5 34.5zM402.5 430q-44.5 51 -120.5 51
q-75 0 -123.5 -52.5t-55.5 -137.5h349q-5 88 -49.5 139zM257 730h53l118 -131h-56l-89 93l-89 -93h-55z" />
    <glyph glyph-name="edieresis" unicode="&#xeb;" horiz-adv-x="554" 
d="M167.5 24.5q-55.5 34.5 -85.5 96t-30 140.5q0 76 29.5 136.5t83 94.5t120.5 34t116.5 -33t75.5 -92.5t26 -138.5v-16h-401q3 -93 56.5 -151t139.5 -58q41 0 79 15.5t68 44.5l32 -31q-78 -76 -180 -76q-74 0 -129.5 34.5zM402.5 430q-44.5 51 -120.5 51
q-75 0 -123.5 -52.5t-55.5 -137.5h349q-5 88 -49.5 139zM170.5 640q-10.5 11 -10.5 27q0 17 10.5 28.5t27.5 11.5q16 0 27 -11.5t11 -28.5q0 -16 -11 -27t-27 -11q-17 0 -27.5 11zM342.5 640q-10.5 11 -10.5 27q0 17 10.5 28.5t26.5 11.5q17 0 28 -11.5t11 -28.5
q0 -16 -11 -27t-28 -11q-16 0 -26.5 11z" />
    <glyph glyph-name="egrave" unicode="&#xe8;" horiz-adv-x="554" 
d="M167.5 24.5q-55.5 34.5 -85.5 96t-30 140.5q0 76 29.5 136.5t83 94.5t120.5 34t116.5 -33t75.5 -92.5t26 -138.5v-16h-401q3 -93 56.5 -151t139.5 -58q41 0 79 15.5t68 44.5l32 -31q-78 -76 -180 -76q-74 0 -129.5 34.5zM402.5 430q-44.5 51 -120.5 51
q-75 0 -123.5 -52.5t-55.5 -137.5h349q-5 88 -49.5 139zM146 730h67l121 -131h-58z" />
    <glyph glyph-name="f" unicode="f" horiz-adv-x="386" 
d="M126 686q47 53 129 53q62 0 112 -41l-25 -36q-38 30 -89 30q-59 0 -91 -39.5t-32 -105.5v-31h225v-45h-225v-471h-51v544q0 89 47 142z" />
    <glyph glyph-name="g" unicode="g" horiz-adv-x="584" 
d="M69 -143l31 34q69 -67 172 -67q85 0 133.5 48.5t48.5 138.5v81q-37 -39 -85 -61.5t-97 -22.5q-66 0 -116.5 32t-78.5 90t-28 135q0 78 32.5 137t89 91.5t126.5 32.5q45 0 89 -17.5t76 -45.5l11 53h31v-506q0 -70 -28.5 -122.5t-81 -81t-121.5 -28.5q-125 0 -204 79z
M373 78.5q46 24.5 81 68.5v271q-33 29 -72.5 45.5t-80.5 16.5q-90 0 -146 -57t-56 -158q0 -98 48 -154.5t131 -56.5q49 0 95 24.5z" />
    <glyph glyph-name="h" unicode="h" horiz-adv-x="571" 
d="M130 739v-305q38 46 87 69t98 23q89 0 136 -59.5t47 -170.5v-296h-50v288q0 92 -32 141.5t-108 49.5q-49 0 -95 -26t-83 -76v-377h-51v726z" />
    <glyph glyph-name="i" unicode="i" horiz-adv-x="213" 
d="M81 516h51v-516h-51v516zM79.5 640q-10.5 11 -10.5 27q0 17 10.5 28.5t27.5 11.5t27.5 -11.5t10.5 -28.5q0 -16 -10.5 -27t-27.5 -11t-27.5 11z" />
    <glyph glyph-name="dotlessi" unicode="&#x131;" horiz-adv-x="213" 
d="M81 516h51v-516h-51v516z" />
    <glyph glyph-name="iacute" unicode="&#xed;" horiz-adv-x="213" 
d="M81 516h51v-516h-51v516zM175 730h62l-105 -131h-54z" />
    <glyph glyph-name="icircumflex" unicode="&#xee;" horiz-adv-x="213" 
d="M81 516h51v-516h-51v516zM80 730h53l118 -131h-56l-89 93l-89 -93h-55z" />
    <glyph glyph-name="idieresis" unicode="&#xef;" horiz-adv-x="213" 
d="M81 516h51v-516h-51v516zM-6.5 640q-10.5 11 -10.5 27q0 17 10.5 28.5t27.5 11.5q16 0 27 -11.5t11 -28.5q0 -16 -11 -27t-27 -11q-17 0 -27.5 11zM165.5 640q-10.5 11 -10.5 27q0 17 10.5 28.5t26.5 11.5q17 0 28 -11.5t11 -28.5q0 -16 -11 -27t-28 -11q-16 0 -26.5 11z
" />
    <glyph glyph-name="igrave" unicode="&#xec;" horiz-adv-x="213" 
d="M81 516h51v-516h-51v516zM-22 730h63l96 -131h-54z" />
    <glyph glyph-name="j" unicode="j" horiz-adv-x="213" 
d="M-21 -165q49 0 75.5 31.5t26.5 89.5v560h51v-554q0 -82 -39.5 -127.5t-111.5 -45.5h-23v46h21zM79.5 640q-10.5 11 -10.5 27q0 17 10.5 28.5t27.5 11.5t27.5 -11.5t10.5 -28.5q0 -16 -10.5 -27t-27.5 -11t-27.5 11z" />
    <glyph glyph-name="uni0237" unicode="&#x237;" horiz-adv-x="213" 
d="M-21 -165q49 0 75.5 31.5t26.5 89.5v560h51v-554q0 -82 -39.5 -127.5t-111.5 -45.5h-23v46h21z" />
    <glyph glyph-name="k" unicode="k" horiz-adv-x="535" 
d="M130 739v-450h87q40 0 69 20t61 70l86 137h55l-100 -157q-39 -61 -75 -87l209 -272h-62l-192 249q-20 -6 -44 -6h-94v-243h-51v726z" />
    <glyph glyph-name="l" unicode="l" horiz-adv-x="270" 
d="M112.5 40q-39.5 45 -39.5 127v559l51 13v-577q0 -59 27 -90.5t76 -31.5h21v-45h-24q-72 0 -111.5 45z" />
    <glyph glyph-name="m" unicode="m" horiz-adv-x="876" 
d="M111 516l17 -84q37 45 82 69.5t91 24.5q51 0 88 -23t57 -68q37 44 86.5 67.5t98.5 23.5q81 0 126.5 -53t45.5 -156v-317h-50v310q0 82 -32 125.5t-99 43.5q-44 0 -86 -22t-76 -65q8 -35 8 -75v-317h-50v310q0 169 -126 169q-44 0 -85.5 -27t-76.5 -76v-376h-51v516h32z
" />
    <glyph glyph-name="n" unicode="n" horiz-adv-x="570" 
d="M111 516l16 -85q38 47 88 71t100 24q89 0 135.5 -59.5t46.5 -170.5v-296h-50v288q0 92 -32 141.5t-107 49.5q-49 0 -95.5 -26t-82.5 -76v-377h-51v516h32z" />
    <glyph glyph-name="ntilde" unicode="&#xf1;" horiz-adv-x="570" 
d="M111 516l16 -85q38 47 88 71t100 24q89 0 135.5 -59.5t46.5 -170.5v-296h-50v288q0 92 -32 141.5t-107 49.5q-49 0 -95.5 -26t-82.5 -76v-377h-51v516h32zM327.5 622.5q-15.5 6.5 -42.5 20.5q-23 13 -35.5 18.5t-28.5 5.5q-21 0 -41.5 -10.5t-44.5 -31.5v48
q23 20 43 29.5t43 9.5q19 0 34 -5.5t28 -12l17 -8.5q5 -3 18 -10t24.5 -11t22.5 -4q24 0 43.5 11t43.5 31v-48q-23 -19 -42.5 -29t-45.5 -10q-21 0 -36.5 6.5z" />
    <glyph glyph-name="o" unicode="o" horiz-adv-x="593" 
d="M169.5 24.5q-55.5 34.5 -86.5 95.5t-31 139q0 76 31.5 136.5t87.5 95.5t125 35q71 0 127 -34t87 -94.5t31 -138.5q0 -77 -31.5 -138t-87.5 -96t-126 -35q-71 0 -126.5 34.5zM397.5 64q44.5 28 69 79t24.5 116t-24.5 115t-69 77.5t-101.5 27.5t-101 -28t-68 -78t-24 -114
q0 -65 24 -116t68 -79t101 -28t101.5 28z" />
    <glyph glyph-name="oacute" unicode="&#xf3;" horiz-adv-x="593" 
d="M169.5 24.5q-55.5 34.5 -86.5 95.5t-31 139q0 76 31.5 136.5t87.5 95.5t125 35q71 0 127 -34t87 -94.5t31 -138.5q0 -77 -31.5 -138t-87.5 -96t-126 -35q-71 0 -126.5 34.5zM397.5 64q44.5 28 69 79t24.5 116t-24.5 115t-69 77.5t-101.5 27.5t-101 -28t-68 -78t-24 -114
q0 -65 24 -116t68 -79t101 -28t101.5 28zM368 730h66l-130 -131h-58z" />
    <glyph glyph-name="ocircumflex" unicode="&#xf4;" horiz-adv-x="593" 
d="M169.5 24.5q-55.5 34.5 -86.5 95.5t-31 139q0 76 31.5 136.5t87.5 95.5t125 35q71 0 127 -34t87 -94.5t31 -138.5q0 -77 -31.5 -138t-87.5 -96t-126 -35q-71 0 -126.5 34.5zM397.5 64q44.5 28 69 79t24.5 116t-24.5 115t-69 77.5t-101.5 27.5t-101 -28t-68 -78t-24 -114
q0 -65 24 -116t68 -79t101 -28t101.5 28zM270 730h53l118 -131h-56l-89 93l-89 -93h-55z" />
    <glyph glyph-name="odieresis" unicode="&#xf6;" horiz-adv-x="593" 
d="M169.5 24.5q-55.5 34.5 -86.5 95.5t-31 139q0 76 31.5 136.5t87.5 95.5t125 35q71 0 127 -34t87 -94.5t31 -138.5q0 -77 -31.5 -138t-87.5 -96t-126 -35q-71 0 -126.5 34.5zM397.5 64q44.5 28 69 79t24.5 116t-24.5 115t-69 77.5t-101.5 27.5t-101 -28t-68 -78t-24 -114
q0 -65 24 -116t68 -79t101 -28t101.5 28zM183.5 640q-10.5 11 -10.5 27q0 17 10.5 28.5t27.5 11.5q16 0 27 -11.5t11 -28.5q0 -16 -11 -27t-27 -11q-17 0 -27.5 11zM355.5 640q-10.5 11 -10.5 27q0 17 10.5 28.5t26.5 11.5q17 0 28 -11.5t11 -28.5q0 -16 -11 -27t-28 -11
q-16 0 -26.5 11z" />
    <glyph glyph-name="ograve" unicode="&#xf2;" horiz-adv-x="593" 
d="M169.5 24.5q-55.5 34.5 -86.5 95.5t-31 139q0 76 31.5 136.5t87.5 95.5t125 35q71 0 127 -34t87 -94.5t31 -138.5q0 -77 -31.5 -138t-87.5 -96t-126 -35q-71 0 -126.5 34.5zM397.5 64q44.5 28 69 79t24.5 116t-24.5 115t-69 77.5t-101.5 27.5t-101 -28t-68 -78t-24 -114
q0 -65 24 -116t68 -79t101 -28t101.5 28zM159 730h67l121 -131h-58z" />
    <glyph glyph-name="oslash" unicode="&#xf8;" horiz-adv-x="593" 
d="M70 150q-18 50 -18 109q0 76 31.5 136.5t87.5 95.5t125 35q82 0 140 -43l53 69h54l-74 -98q35 -35 53.5 -85t18.5 -110q0 -77 -31.5 -138t-87.5 -96t-126 -35q-81 0 -142 45l-54 -72h-54l75 101q-33 36 -51 86zM296 479q-57 0 -101 -28t-68 -78t-24 -114q0 -95 48 -155
l256 340q-46 35 -111 35zM397.5 64q44.5 28 69 79t24.5 116q0 47 -13.5 86.5t-37.5 68.5l-257 -340q49 -38 113 -38q57 0 101.5 28z" />
    <glyph glyph-name="otilde" unicode="&#xf5;" horiz-adv-x="593" 
d="M169.5 24.5q-55.5 34.5 -86.5 95.5t-31 139q0 76 31.5 136.5t87.5 95.5t125 35q71 0 127 -34t87 -94.5t31 -138.5q0 -77 -31.5 -138t-87.5 -96t-126 -35q-71 0 -126.5 34.5zM397.5 64q44.5 28 69 79t24.5 116t-24.5 115t-69 77.5t-101.5 27.5t-101 -28t-68 -78t-24 -114
q0 -65 24 -116t68 -79t101 -28t101.5 28zM336.5 622.5q-15.5 6.5 -42.5 20.5q-23 13 -35.5 18.5t-28.5 5.5q-21 0 -41.5 -10.5t-44.5 -31.5v48q23 20 43 29.5t43 9.5q19 0 34 -5.5t28 -12l17 -8.5q5 -3 18 -10t24.5 -11t22.5 -4q24 0 43.5 11t43.5 31v-48q-23 -19 -42.5 -29
t-45.5 -10q-21 0 -36.5 6.5z" />
    <glyph glyph-name="oe" unicode="&#x153;" horiz-adv-x="996" 
d="M169.5 24.5q-55.5 34.5 -86.5 95.5t-31 139q0 76 31.5 136.5t87.5 95.5t125 35q76 0 134 -39t87 -107q27 68 82 107t127 39q67 0 116.5 -33t76 -92.5t26.5 -138.5v-16h-402q4 -93 57.5 -151t138.5 -58q41 0 78.5 16t68.5 44l32 -31q-79 -76 -179 -76q-80 0 -138 39.5
t-85 109.5q-28 -69 -86.5 -109t-133.5 -40q-71 0 -126.5 34.5zM845 430q-45 51 -122 51q-74 0 -122.5 -52.5t-56.5 -137.5h349q-3 88 -48 139zM397.5 65q44.5 28 69 78.5t24.5 115.5t-24.5 115t-69 77.5t-101.5 27.5t-101 -28t-68.5 -78t-24.5 -114q0 -65 24.5 -115.5
t68.5 -78.5t101 -28t101.5 28z" />
    <glyph glyph-name="p" unicode="p" horiz-adv-x="589" 
d="M111 516l16 -78q36 41 85 64.5t100 23.5q67 0 118 -32.5t79 -92.5t28 -140q0 -81 -32.5 -142t-89.5 -94t-128 -33q-42 0 -84 16t-73 41v-256l-51 -12v735h32zM430.5 97.5q55.5 58.5 55.5 162.5t-47 161.5t-131 57.5q-51 0 -97 -25t-81 -69v-284q33 -29 72.5 -45.5
t80.5 -16.5q92 0 147.5 58.5z" />
    <glyph glyph-name="thorn" unicode="&#xfe;" horiz-adv-x="589" 
d="M130 739v-297q36 39 83.5 61.5t98.5 22.5q67 0 118 -32.5t79 -92.5t28 -140q0 -81 -32.5 -142t-89.5 -94t-128 -33q-41 0 -83.5 17t-73.5 46v-262l-51 -12v945zM430.5 97q55.5 58 55.5 163q0 104 -47 161.5t-131 57.5q-51 0 -97 -25t-81 -69v-279q34 -30 73.5 -48.5
t79.5 -18.5q92 0 147.5 58z" />
    <glyph glyph-name="q" unicode="q" horiz-adv-x="589" 
d="M375 13q-48 -23 -98 -23q-67 0 -118 32.5t-79 92.5t-28 141t32.5 142t89.5 94.5t128 33.5q45 0 90 -18t75 -46l11 54h32v-723l-50 -12v294q-37 -39 -85 -62zM379 62.5q46 25.5 81 70.5v284q-34 29 -73.5 46t-80.5 17q-92 0 -147.5 -59t-55.5 -164q0 -104 47.5 -162
t131.5 -58q51 0 97 25.5z" />
    <glyph glyph-name="r" unicode="r" horiz-adv-x="369" 
d="M111 516l17 -85q40 46 92 69.5t105 23.5h13v-48h-20q-52 0 -100.5 -25t-87.5 -75v-376h-51v516h32z" />
    <glyph glyph-name="s" unicode="s" horiz-adv-x="486" 
d="M46 72l33 33q35 -35 77.5 -51.5t96.5 -16.5q64 0 99 24t35 68q0 47 -35 72.5t-111 40.5q-66 13 -104 31t-55 46t-17 72q0 37 23 68t64 49t94 18q104 0 173 -74l-33 -32q-59 59 -140 59q-61 0 -97 -24t-36 -65q0 -31 15 -49.5t46.5 -30.5t88.5 -24q92 -19 133.5 -55.5
t41.5 -98.5q0 -66 -49 -104t-138 -38q-125 0 -205 82z" />
    <glyph glyph-name="scaron" unicode="&#x161;" horiz-adv-x="486" 
d="M46 72l33 33q35 -35 77.5 -51.5t96.5 -16.5q64 0 99 24t35 68q0 47 -35 72.5t-111 40.5q-66 13 -104 31t-55 46t-17 72q0 37 23 68t64 49t94 18q104 0 173 -74l-33 -32q-59 59 -140 59q-61 0 -97 -24t-36 -65q0 -31 15 -49.5t46.5 -30.5t88.5 -24q92 -19 133.5 -55.5
t41.5 -98.5q0 -66 -49 -104t-138 -38q-125 0 -205 82zM103 730h56l89 -93l89 93h55l-118 -131h-53z" />
    <glyph glyph-name="germandbls" unicode="&#xdf;" horiz-adv-x="622" 
d="M214 56l28 34q34 -28 68.5 -40.5t79.5 -12.5q65 0 100.5 26t35.5 73q0 45 -29 69.5t-85 48.5q-5 3 -25 10q-37 15 -57 26t-34 31.5t-14 52.5q0 33 18.5 58.5t53.5 55.5q34 29 52 53t18 54q0 47 -34 72.5t-95 25.5q-75 0 -120.5 -52.5t-45.5 -138.5v-502h-50v501
q0 70 28 124t78 84t112 30q82 0 128.5 -39t46.5 -101q0 -41 -21 -69.5t-61 -63.5q-32 -28 -46.5 -46t-14.5 -41q0 -30 20.5 -45.5t66.5 -33.5l28 -12q59 -25 95.5 -59.5t36.5 -92.5q0 -68 -48 -107t-132 -39q-110 0 -182 66z" />
    <glyph glyph-name="t" unicode="t" horiz-adv-x="388" 
d="M123.5 40.5q-43.5 49.5 -43.5 137.5v466l51 12v-140h211v-45h-211v-296q0 -64 29.5 -100.5t84.5 -36.5q29 0 48.5 6.5t37.5 21.5l27 -35q-49 -40 -111 -40q-80 0 -123.5 49.5z" />
    <glyph glyph-name="u" unicode="u" horiz-adv-x="569" 
d="M121 49.5q-46 59.5 -46 170.5v296h51v-288q0 -92 31 -141.5t108 -49.5q47 0 91.5 26t82.5 76v377h50v-516h-31l-17 85q-38 -47 -86.5 -71t-98.5 -24q-89 0 -135 59.5z" />
    <glyph glyph-name="uacute" unicode="&#xfa;" horiz-adv-x="569" 
d="M121 49.5q-46 59.5 -46 170.5v296h51v-288q0 -92 31 -141.5t108 -49.5q47 0 91.5 26t82.5 76v377h50v-516h-31l-17 85q-38 -47 -86.5 -71t-98.5 -24q-89 0 -135 59.5zM355 730h66l-130 -131h-58z" />
    <glyph glyph-name="ucircumflex" unicode="&#xfb;" horiz-adv-x="569" 
d="M121 49.5q-46 59.5 -46 170.5v296h51v-288q0 -92 31 -141.5t108 -49.5q47 0 91.5 26t82.5 76v377h50v-516h-31l-17 85q-38 -47 -86.5 -71t-98.5 -24q-89 0 -135 59.5zM257 730h53l118 -131h-56l-89 93l-89 -93h-55z" />
    <glyph glyph-name="udieresis" unicode="&#xfc;" horiz-adv-x="569" 
d="M121 49.5q-46 59.5 -46 170.5v296h51v-288q0 -92 31 -141.5t108 -49.5q47 0 91.5 26t82.5 76v377h50v-516h-31l-17 85q-38 -47 -86.5 -71t-98.5 -24q-89 0 -135 59.5zM170.5 640q-10.5 11 -10.5 27q0 17 10.5 28.5t27.5 11.5q16 0 27 -11.5t11 -28.5q0 -16 -11 -27
t-27 -11q-17 0 -27.5 11zM342.5 640q-10.5 11 -10.5 27q0 17 10.5 28.5t26.5 11.5q17 0 28 -11.5t11 -28.5q0 -16 -11 -27t-28 -11q-16 0 -26.5 11z" />
    <glyph glyph-name="ugrave" unicode="&#xf9;" horiz-adv-x="569" 
d="M121 49.5q-46 59.5 -46 170.5v296h51v-288q0 -92 31 -141.5t108 -49.5q47 0 91.5 26t82.5 76v377h50v-516h-31l-17 85q-38 -47 -86.5 -71t-98.5 -24q-89 0 -135 59.5zM146 730h67l121 -131h-58z" />
    <glyph glyph-name="v" unicode="v" horiz-adv-x="521" 
d="M21 516h55l185 -450l186 450h54l-218 -516h-47z" />
    <glyph glyph-name="w" unicode="w" horiz-adv-x="771" 
d="M32 516h55l129 -446l150 408h48l143 -408l133 446h51l-160 -516h-48l-147 411l-146 -411h-48z" />
    <glyph glyph-name="wacute" unicode="&#x1e83;" horiz-adv-x="771" 
d="M32 516h55l129 -446l150 408h48l143 -408l133 446h51l-160 -516h-48l-147 411l-146 -411h-48zM457 730h66l-130 -131h-58z" />
    <glyph glyph-name="wcircumflex" unicode="&#x175;" horiz-adv-x="771" 
d="M32 516h55l129 -446l150 408h48l143 -408l133 446h51l-160 -516h-48l-147 411l-146 -411h-48zM359 730h53l118 -131h-56l-89 93l-89 -93h-55z" />
    <glyph glyph-name="wdieresis" unicode="&#x1e85;" horiz-adv-x="771" 
d="M32 516h55l129 -446l150 408h48l143 -408l133 446h51l-160 -516h-48l-147 411l-146 -411h-48zM272.5 640q-10.5 11 -10.5 27q0 17 10.5 28.5t27.5 11.5q16 0 27 -11.5t11 -28.5q0 -16 -11 -27t-27 -11q-17 0 -27.5 11zM444.5 640q-10.5 11 -10.5 27q0 17 10.5 28.5
t26.5 11.5q17 0 28 -11.5t11 -28.5q0 -16 -11 -27t-28 -11q-16 0 -26.5 11z" />
    <glyph glyph-name="wgrave" unicode="&#x1e81;" horiz-adv-x="771" 
d="M32 516h55l129 -446l150 408h48l143 -408l133 446h51l-160 -516h-48l-147 411l-146 -411h-48zM248 730h67l121 -131h-58z" />
    <glyph glyph-name="x" unicode="x" horiz-adv-x="521" 
d="M230 270l-181 246h60l153 -209l152 209h58l-182 -245l201 -271h-62l-171 232l-171 -232h-57z" />
    <glyph glyph-name="y" unicode="y" horiz-adv-x="517" 
d="M86 -164q48 0 80.5 27t53.5 82l27 68l-228 503h55l197 -441l173 441h53l-234 -586q-29 -73 -71 -107t-104 -34h-22v47h20z" />
    <glyph glyph-name="yacute" unicode="&#xfd;" horiz-adv-x="517" 
d="M86 -164q48 0 80.5 27t53.5 82l27 68l-228 503h55l197 -441l173 441h53l-234 -586q-29 -73 -71 -107t-104 -34h-22v47h20zM330 730h66l-130 -131h-58z" />
    <glyph glyph-name="ycircumflex" unicode="&#x177;" horiz-adv-x="517" 
d="M86 -164q48 0 80.5 27t53.5 82l27 68l-228 503h55l197 -441l173 441h53l-234 -586q-29 -73 -71 -107t-104 -34h-22v47h20zM232 730h53l118 -131h-56l-89 93l-89 -93h-55z" />
    <glyph glyph-name="ydieresis" unicode="&#xff;" horiz-adv-x="517" 
d="M86 -164q48 0 80.5 27t53.5 82l27 68l-228 503h55l197 -441l173 441h53l-234 -586q-29 -73 -71 -107t-104 -34h-22v47h20zM145.5 640q-10.5 11 -10.5 27q0 17 10.5 28.5t27.5 11.5q16 0 27 -11.5t11 -28.5q0 -16 -11 -27t-27 -11q-17 0 -27.5 11zM317.5 640
q-10.5 11 -10.5 27q0 17 10.5 28.5t26.5 11.5q17 0 28 -11.5t11 -28.5q0 -16 -11 -27t-28 -11q-16 0 -26.5 11z" />
    <glyph glyph-name="ygrave" unicode="&#x1ef3;" horiz-adv-x="517" 
d="M86 -164q48 0 80.5 27t53.5 82l27 68l-228 503h55l197 -441l173 441h53l-234 -586q-29 -73 -71 -107t-104 -34h-22v47h20zM121 730h67l121 -131h-58z" />
    <glyph glyph-name="z" unicode="z" horiz-adv-x="515" 
d="M56 38l340 433h-335v45h398v-38l-339 -432h347v-46h-411v38z" />
    <glyph glyph-name="zcaron" unicode="&#x17e;" horiz-adv-x="515" 
d="M56 38l340 433h-335v45h398v-38l-339 -432h347v-46h-411v38zM111 730h56l89 -93l89 93h55l-118 -131h-53z" />
    <glyph glyph-name="ordfeminine" unicode="&#xaa;" horiz-adv-x="401" 
d="M71.5 313.5q-32.5 28.5 -32.5 77.5q0 53 41.5 83.5t112.5 30.5h110v18q0 117 -107 117q-30 0 -59.5 -12t-53.5 -35l-28 28q26 29 64 45t78 16q74 0 112.5 -41.5t38.5 -122.5v-226h-30l-13 58q-28 -29 -66 -47t-78 -18q-57 0 -89.5 28.5zM239 344.5q36 18.5 64 49.5v72
h-112q-50 0 -78.5 -19.5t-28.5 -54.5q0 -29 22.5 -47.5t58.5 -18.5q38 0 74 18.5z" />
    <glyph glyph-name="ordmasculine" unicode="&#xba;" horiz-adv-x="453" 
d="M131 310.5q-42 25.5 -66 71t-24 103.5q0 56 24 101t66.5 70.5t94.5 25.5q53 0 95.5 -25t66.5 -70t24 -102t-24 -102.5t-66.5 -71.5t-95.5 -26t-95 25.5zM326.5 372.5q38.5 43.5 38.5 112.5t-38 111.5t-100 42.5q-61 0 -99 -43t-38 -111q0 -69 37.5 -112.5t98.5 -43.5
q62 0 100.5 43.5z" />
    <glyph glyph-name="uni03BC" unicode="&#x3bc;" horiz-adv-x="571" 
d="M129 516v-289q0 -91 32.5 -140.5t109.5 -49.5q94 0 171 102v377h50v-516h-31l-17 85q-38 -47 -85 -71t-96 -24q-88 0 -134 66v-263l-51 -12v735h51z" />
    <glyph glyph-name="zero" unicode="0" horiz-adv-x="617" 
d="M175 33q-57 43 -87.5 120t-30.5 177q0 95 31 171.5t88.5 120.5t131.5 44q76 0 133 -43t88 -119t31 -174q0 -97 -31 -174.5t-88 -121.5t-132 -44q-77 0 -134 43zM415.5 76.5q45.5 37.5 69.5 103.5t24 151q0 84 -24 149t-69.5 101t-107.5 36q-61 0 -106.5 -37t-69.5 -102.5
t-24 -146.5q0 -85 23.5 -151.5t69 -103.5t107.5 -37t107.5 37.5z" />
    <glyph glyph-name="one" unicode="1" horiz-adv-x="356" 
d="M197 603l-159 -50v44l171 60h38v-657h-50v603z" />
    <glyph glyph-name="two" unicode="2" horiz-adv-x="555" 
d="M329 299q53 51 79 93.5t26 87.5q0 65 -41.5 101.5t-120.5 36.5q-101 0 -182 -83l-32 33q93 98 218 98q97 0 153.5 -49t56.5 -131q0 -54 -28.5 -104.5t-83.5 -104.5l-235 -229h355v-48h-430v37z" />
    <glyph glyph-name="three" unicode="3" horiz-adv-x="556" 
d="M139.5 14q-57.5 24 -98.5 63l33 34q37 -33 84.5 -52.5t103.5 -19.5q83 0 131.5 41t48.5 108q0 69 -51.5 106t-141.5 37h-56v33l214 245h-343v48h406v-37l-211 -244q108 -2 171.5 -51.5t63.5 -138.5q0 -57 -28 -101.5t-80.5 -69.5t-122.5 -25q-66 0 -123.5 24z" />
    <glyph glyph-name="four" unicode="4" horiz-adv-x="592" 
d="M395 181h-350v38l350 438h49v-429h104v-47h-104v-181h-49v181zM395 228v360l-288 -360h288z" />
    <glyph glyph-name="five" unicode="5" horiz-adv-x="545" 
d="M145 13.5q-55 23.5 -95 63.5l33 34q77 -72 184 -72q76 0 121.5 41.5t45.5 111.5q0 71 -46 109t-128 38h-169v31l59 287h295v-48h-260l-44 -223h116q108 0 168.5 -50.5t60.5 -144.5q0 -59 -27 -104.5t-76.5 -71t-115.5 -25.5q-67 0 -122 23.5z" />
    <glyph glyph-name="six" unicode="6" horiz-adv-x="570" 
d="M128 71q-63 81 -63 228q0 112 30.5 194.5t88.5 127.5t138 45q104 0 181 -84l-34 -31q-34 35 -69.5 51t-79.5 16q-90 0 -144 -72t-60 -196q43 23 93.5 35.5t100.5 12.5q64 0 111.5 -26t72.5 -72t25 -103q0 -56 -27.5 -103.5t-77 -75.5t-111.5 -28q-112 0 -175 81zM422 83
q45 45 45 116q0 68 -42.5 110t-119.5 42q-50 0 -100.5 -13t-89.5 -36q0 -129 48 -196.5t137 -67.5q77 0 122 45z" />
    <glyph glyph-name="seven" unicode="7" horiz-adv-x="549" 
d="M443 610h-389v47h447v-34l-286 -623h-54z" />
    <glyph glyph-name="eight" unicode="8" horiz-adv-x="594" 
d="M174.5 13q-53.5 23 -83 64.5t-29.5 95.5t34 101t97 81q-109 53 -109 149q0 47 27.5 84t77 57.5t112.5 20.5q65 0 114 -21.5t75.5 -60t26.5 -88.5q0 -49 -27.5 -92t-82.5 -73q125 -54 125 -163q0 -53 -29.5 -93.5t-83 -62.5t-122.5 -22t-122.5 23zM439 412.5
q29 39.5 29 82.5q0 58 -45 92t-122 34q-75 0 -121 -32t-46 -83q0 -56 42.5 -88.5t131.5 -54.5q31 -7 48 -13q54 23 83 62.5zM430.5 71.5q50.5 35.5 50.5 95.5q0 61 -47 95t-142 58l-50 15q-60 -26 -94.5 -69t-34.5 -92q0 -62 52 -100t134 -38q81 0 131.5 35.5z" />
    <glyph glyph-name="nine" unicode="9" horiz-adv-x="570" 
d="M66 73l34 31q35 -34 71 -50t81 -16q95 0 146.5 70.5t56.5 207.5q-43 -23 -94.5 -35.5t-100.5 -12.5q-97 0 -153 54t-56 144q0 56 29 102t79 72t111 26q111 0 173 -81t62 -229q0 -177 -64.5 -271.5t-190.5 -94.5q-108 0 -184 83zM366 328q50 13 89 37q-1 124 -48.5 188.5
t-133.5 64.5q-77 0 -124 -42t-47 -112t43.5 -109.5t119.5 -39.5q51 0 101 13z" />
    <glyph glyph-name="zero.zero" horiz-adv-x="617" 
d="M175 33q-57 43 -87.5 120t-30.5 177q0 95 31 171.5t88.5 120.5t131.5 44q76 0 133 -43t88 -119t31 -174q0 -97 -31 -174.5t-88 -121.5t-132 -44q-77 0 -134 43zM308 617q-61 0 -107 -37.5t-70 -102.5t-24 -146q0 -99 32 -171l313 383q-54 74 -144 74zM415.5 76.5
q45.5 37.5 70 103.5t24.5 151q0 98 -32 168l-315 -383q53 -77 145 -77q62 0 107.5 37.5z" />
    <glyph glyph-name="zero.tf" 
d="M164 33q-55 43 -84.5 120t-29.5 177q0 94 30 171t85 121t127 44q74 0 129 -43t85 -119t30 -174q0 -97 -30 -174.5t-85 -121.5t-128 -44q-74 0 -129 43zM395.5 76.5q43.5 37.5 67 104t23.5 150.5t-23 149t-66.5 101.5t-103.5 36.5t-103.5 -37.5t-66 -102.5t-22.5 -147
q0 -85 22.5 -151t65.5 -103.5t103 -37.5t103.5 37.5z" />
    <glyph glyph-name="one.tf" 
d="M321 603l-181 -56v42l193 68h39v-657h-51v603z" />
    <glyph glyph-name="two.tf" 
d="M338 299q52 52 78 94t26 87q0 65 -41.5 101.5t-119.5 36.5q-102 0 -182 -83l-32 33q91 98 217 98q97 0 153.5 -49t56.5 -131q0 -54 -28.5 -104.5t-83.5 -104.5l-234 -229h354v-48h-430v37z" />
    <glyph glyph-name="three.tf" 
d="M158.5 13.5q-57.5 23.5 -99.5 63.5l33 34q81 -72 189 -72q82 0 130.5 41t48.5 108q0 69 -51.5 106t-141.5 37h-55v33l213 245h-343v48h407v-37l-211 -244q108 -2 171.5 -51.5t63.5 -138.5q0 -56 -28.5 -101t-80.5 -70t-122 -25q-66 0 -123.5 23.5z" />
    <glyph glyph-name="four.tf" 
d="M395 181h-353v35l353 441h49v-430h104v-46h-104v-181h-49v181zM395 227v364l-292 -364h292z" />
    <glyph glyph-name="five.tf" 
d="M170 13.5q-55 23.5 -95 63.5l33 34q75 -72 183 -72q76 0 121.5 41.5t45.5 111.5q0 71 -46 109t-128 38h-168v31l58 287h296v-48h-260l-44 -223h116q107 0 167.5 -50.5t60.5 -144.5q0 -59 -27 -104.5t-76.5 -71t-114.5 -25.5q-67 0 -122 23.5z" />
    <glyph glyph-name="six.tf" 
d="M141 70.5q-63 80.5 -63 228.5q0 112 30.5 194.5t88.5 127.5t138 45q103 0 180 -84l-34 -31q-34 35 -69.5 51t-79.5 16q-89 0 -143.5 -72t-60.5 -196q43 24 94 36t101 12q63 0 110.5 -26t72.5 -72t25 -103q0 -56 -27.5 -103.5t-76.5 -75.5t-111 -28q-112 0 -175 80.5z
M435 83q45 45 45 116q0 68 -43 110t-120 42q-50 0 -100.5 -13t-89.5 -36q0 -129 48 -196.5t137 -67.5q78 0 123 45z" />
    <glyph glyph-name="seven.tf" 
d="M457 610h-390v47h448v-34l-286 -623h-54z" />
    <glyph glyph-name="eight.tf" 
d="M170.5 13q-53.5 23 -83 64.5t-29.5 95.5t34 101t97 81q-109 53 -109 149q0 47 27.5 84t77 57.5t112.5 20.5q65 0 114 -21.5t75.5 -60t26.5 -88.5q0 -49 -28 -92t-83 -73q126 -55 126 -163q0 -53 -29.5 -93.5t-83 -62.5t-122.5 -22t-122.5 23zM434.5 412.5
q29.5 39.5 29.5 82.5q0 58 -45 92t-122 34q-75 0 -121 -32t-46 -83q0 -56 42.5 -88.5t131.5 -54.5q31 -7 48 -13q53 23 82.5 62.5zM426 71.5q51 35.5 51 95.5q0 61 -47.5 95t-142.5 58l-49 15q-60 -26 -94.5 -69t-34.5 -92q0 -62 51.5 -100t133.5 -38q81 0 132 35.5z" />
    <glyph glyph-name="nine.tf" 
d="M74 73l35 31q34 -34 70.5 -50t81.5 -16q95 0 146.5 71t55.5 207q-43 -24 -94 -36t-101 -12q-97 0 -153 54t-56 144q0 56 29 102t79 72t111 26q111 0 173 -81t62 -229q0 -177 -64.5 -271.5t-189.5 -94.5q-108 0 -185 83zM374.5 328q50.5 13 88.5 37q-1 124 -48.5 188.5
t-133.5 64.5q-77 0 -124 -42t-47 -112t43.5 -109.5t119.5 -39.5q51 0 101.5 13z" />
    <glyph glyph-name="zero.tf.zero" 
d="M164 33q-55 43 -84.5 120t-29.5 177q0 94 30 171t85 121t127 44q74 0 129 -43t85 -119t30 -174q0 -97 -30 -174.5t-85 -121.5t-128 -44q-74 0 -129 43zM293 618q-60 0 -103.5 -37.5t-66 -102.5t-22.5 -147q0 -98 28 -166l305 374q-52 79 -141 79zM395.5 76.5
q43.5 37.5 67 104t23.5 150.5q0 92 -28 162l-306 -374q24 -38 60 -59t80 -21q60 0 103.5 37.5z" />
    <glyph glyph-name="zero.subs" horiz-adv-x="435" 
d="M99.5 -29.5q-44.5 53.5 -44.5 139.5q0 55 20.5 98.5t57.5 68.5t85 25q73 0 118 -53.5t45 -138.5q0 -56 -20.5 -99.5t-57.5 -68.5t-85 -25q-74 0 -118.5 53.5zM302.5 2q30.5 41 30.5 108t-30 108t-84 41q-55 0 -86 -41.5t-31 -107.5t30.5 -107.5t85.5 -41.5q54 0 84.5 41z
" />
    <glyph glyph-name="one.subs" horiz-adv-x="312" 
d="M159 251l-95 -26v38l107 34h34v-373h-46v327z" />
    <glyph glyph-name="two.subs" horiz-adv-x="405" 
d="M224 96q31 28 46 49.5t15 43.5q0 33 -23 51.5t-66 18.5q-29 0 -57 -12.5t-50 -32.5l-27 31q28 26 64 42t74 16q62 0 97.5 -29.5t35.5 -78.5q0 -30 -17.5 -57.5t-50.5 -57.5l-130 -115h202v-41h-269v32z" />
    <glyph glyph-name="three.subs" horiz-adv-x="408" 
d="M119 -68.5q-35 14.5 -60 38.5l28 31q48 -43 108 -43q45 0 72.5 21t27.5 54t-28 51.5t-76 18.5h-43v29l120 122h-196v42h255v-31l-123 -126q63 -2 101 -30t38 -77q0 -52 -39.5 -83.5t-106.5 -31.5q-43 0 -78 14.5z" />
    <glyph glyph-name="four.subs" horiz-adv-x="422" 
d="M265 21h-213v30l213 246h44v-236h60v-40h-60v-97h-44v97zM265 61v181l-158 -181h158z" />
    <glyph glyph-name="five.subs" horiz-adv-x="397" 
d="M59 -31l29 29q43 -40 104 -40q42 0 67.5 21t25.5 56q0 34 -25.5 53t-69.5 19h-105v29l30 160h192v-42h-160l-19 -108h64q65 0 103 -30t38 -82q0 -53 -38 -85t-102 -32q-78 0 -134 52z" />
    <glyph glyph-name="six.subs" horiz-adv-x="416" 
d="M105.5 -37q-39.5 46 -39.5 130q0 95 44 152t121 57q38 0 68 -14.5t50 -38.5l-28 -27q-18 20 -39.5 29t-49.5 9q-51 0 -82.5 -35t-37.5 -96q52 25 113 25q60 0 96 -32.5t36 -82.5q0 -52 -40 -87t-101 -35q-71 0 -110.5 46zM285 -20q26 22 26 58q0 34 -24 55t-68 21
q-29 0 -57.5 -6.5t-50.5 -17.5q0 -64 27 -98t76 -34q45 0 71 22z" />
    <glyph glyph-name="seven.subs" horiz-adv-x="403" 
d="M291 255h-226v42h279v-25l-167 -348h-49z" />
    <glyph glyph-name="eight.subs" horiz-adv-x="438" 
d="M112.5 -54.5q-41.5 28.5 -41.5 75.5q0 29 19 55.5t54 45.5q-59 29 -59 84q0 42 38.5 69t97.5 27q61 0 98.5 -27.5t37.5 -71.5q0 -26 -15.5 -49.5t-44.5 -40.5q70 -33 70 -93q0 -47 -41 -75t-106 -28q-66 0 -107.5 28.5zM299.5 160q15.5 20 15.5 41q0 29 -25.5 46
t-68.5 17q-41 0 -67 -16t-26 -41q0 -28 25 -44.5t78 -29.5l24 -5q29 12 44.5 32zM293.5 -26.5q29.5 17.5 29.5 47.5q0 31 -27 47t-84 31l-28 7q-32 -14 -50.5 -35t-18.5 -45q0 -31 29.5 -50.5t74.5 -19.5t74.5 17.5z" />
    <glyph glyph-name="nine.subs" horiz-adv-x="416" 
d="M117 -69q-31 14 -52 38l29 28q18 -20 39.5 -29t52.5 -9q53 0 83 34.5t35 99.5q-53 -25 -113 -25t-95.5 31.5t-35.5 82.5t40 85.5t100 34.5q71 0 110.5 -47t39.5 -130q0 -100 -42 -154t-121 -54q-39 0 -70 14zM304 132q-1 63 -27 95.5t-75 32.5q-43 0 -69.5 -21.5
t-26.5 -56.5t24 -54t67 -19q59 0 107 23z" />
    <glyph glyph-name="zero.dnom" horiz-adv-x="435" 
d="M99.5 46.5q-44.5 53.5 -44.5 139.5q0 55 20.5 98.5t57.5 68.5t85 25q73 0 118 -53.5t45 -138.5q0 -56 -20.5 -99.5t-57.5 -68.5t-85 -25q-74 0 -118.5 53.5zM302.5 78q30.5 41 30.5 108t-30 108t-84 41q-55 0 -86 -41.5t-31 -107.5t30.5 -107.5t85.5 -41.5q54 0 84.5 41z
" />
    <glyph glyph-name="one.dnom" horiz-adv-x="312" 
d="M159 327l-95 -26v38l107 34h34v-373h-46v327z" />
    <glyph glyph-name="two.dnom" horiz-adv-x="405" 
d="M224 172q31 28 46 49.5t15 43.5q0 33 -23 51.5t-66 18.5q-29 0 -57 -12.5t-50 -32.5l-27 31q28 26 64 42t74 16q62 0 97.5 -29.5t35.5 -78.5q0 -30 -17.5 -57.5t-50.5 -57.5l-130 -115h202v-41h-269v32z" />
    <glyph glyph-name="three.dnom" horiz-adv-x="408" 
d="M119 7.5q-35 14.5 -60 38.5l28 31q48 -43 108 -43q45 0 72.5 21t27.5 54t-28 51.5t-76 18.5h-43v29l120 122h-196v42h255v-31l-123 -126q63 -2 101 -30t38 -77q0 -52 -39.5 -83.5t-106.5 -31.5q-43 0 -78 14.5z" />
    <glyph glyph-name="four.dnom" horiz-adv-x="422" 
d="M265 97h-213v30l213 246h44v-236h60v-40h-60v-97h-44v97zM265 137v181l-158 -181h158z" />
    <glyph glyph-name="five.dnom" horiz-adv-x="397" 
d="M59 45l29 29q43 -40 104 -40q42 0 67.5 21t25.5 56q0 34 -25.5 53t-69.5 19h-105v29l30 160h192v-42h-160l-19 -108h64q65 0 103 -30t38 -82q0 -53 -38 -85t-102 -32q-78 0 -134 52z" />
    <glyph glyph-name="six.dnom" horiz-adv-x="416" 
d="M105.5 39q-39.5 46 -39.5 130q0 95 44 152t121 57q38 0 68 -14.5t50 -38.5l-28 -27q-18 20 -39.5 29t-49.5 9q-51 0 -82.5 -35t-37.5 -96q52 25 113 25q60 0 96 -32.5t36 -82.5q0 -52 -40 -87t-101 -35q-71 0 -110.5 46zM285 56q26 22 26 58q0 34 -24 55t-68 21
q-29 0 -57.5 -6.5t-50.5 -17.5q0 -64 27 -98t76 -34q45 0 71 22z" />
    <glyph glyph-name="seven.dnom" horiz-adv-x="403" 
d="M291 331h-226v42h279v-25l-167 -348h-49z" />
    <glyph glyph-name="eight.dnom" horiz-adv-x="438" 
d="M112.5 21.5q-41.5 28.5 -41.5 75.5q0 29 19 55.5t54 45.5q-59 29 -59 84q0 42 38.5 69t97.5 27q61 0 98.5 -27.5t37.5 -71.5q0 -26 -15.5 -49.5t-44.5 -40.5q70 -33 70 -93q0 -47 -41 -75t-106 -28q-66 0 -107.5 28.5zM299.5 236q15.5 20 15.5 41q0 29 -25.5 46t-68.5 17
q-41 0 -67 -16t-26 -41q0 -28 25 -44.5t78 -29.5l24 -5q29 12 44.5 32zM293.5 49.5q29.5 17.5 29.5 47.5q0 31 -27 47t-84 31l-28 7q-32 -14 -50.5 -35t-18.5 -45q0 -31 29.5 -50.5t74.5 -19.5t74.5 17.5z" />
    <glyph glyph-name="nine.dnom" horiz-adv-x="416" 
d="M117 7q-31 14 -52 38l29 28q18 -20 39.5 -29t52.5 -9q53 0 83 34.5t35 99.5q-53 -25 -113 -25t-95.5 31.5t-35.5 82.5t40 85.5t100 34.5q71 0 110.5 -47t39.5 -130q0 -100 -42 -154t-121 -54q-39 0 -70 14zM304 208q-1 63 -27 95.5t-75 32.5q-43 0 -69.5 -21.5
t-26.5 -56.5t24 -54t67 -19q59 0 107 23z" />
    <glyph glyph-name="zero.numr" horiz-adv-x="435" 
d="M99.5 329.5q-44.5 53.5 -44.5 139.5q0 55 20.5 98.5t57.5 68.5t85 25q73 0 118 -53.5t45 -138.5q0 -56 -20.5 -99.5t-57.5 -68.5t-85 -25q-74 0 -118.5 53.5zM302.5 361q30.5 41 30.5 108t-30 108t-84 41q-55 0 -86 -41.5t-31 -107.5t30.5 -107.5t85.5 -41.5
q54 0 84.5 41z" />
    <glyph glyph-name="one.numr" horiz-adv-x="312" 
d="M159 610l-95 -26v38l107 34h34v-373h-46v327z" />
    <glyph glyph-name="two.numr" horiz-adv-x="405" 
d="M224 455q31 28 46 49.5t15 43.5q0 33 -23 51.5t-66 18.5q-29 0 -57 -12.5t-50 -32.5l-27 31q28 26 64 42t74 16q62 0 97.5 -29.5t35.5 -78.5q0 -30 -17.5 -57.5t-50.5 -57.5l-130 -115h202v-41h-269v32z" />
    <glyph glyph-name="three.numr" horiz-adv-x="408" 
d="M119 290.5q-35 14.5 -60 38.5l28 31q48 -43 108 -43q45 0 72.5 21t27.5 54t-28 51.5t-76 18.5h-43v29l120 122h-196v42h255v-31l-123 -126q63 -2 101 -30t38 -77q0 -52 -39.5 -83.5t-106.5 -31.5q-43 0 -78 14.5z" />
    <glyph glyph-name="four.numr" horiz-adv-x="422" 
d="M265 380h-213v30l213 246h44v-236h60v-40h-60v-97h-44v97zM265 420v181l-158 -181h158z" />
    <glyph glyph-name="five.numr" horiz-adv-x="397" 
d="M59 328l29 29q43 -40 104 -40q42 0 67.5 21t25.5 56q0 34 -25.5 53t-69.5 19h-105v29l30 160h192v-42h-160l-19 -108h64q65 0 103 -30t38 -82q0 -53 -38 -85t-102 -32q-78 0 -134 52z" />
    <glyph glyph-name="six.numr" horiz-adv-x="416" 
d="M105.5 322q-39.5 46 -39.5 130q0 95 44 152t121 57q38 0 68 -14.5t50 -38.5l-28 -27q-18 20 -39.5 29t-49.5 9q-51 0 -82.5 -35t-37.5 -96q52 25 113 25q60 0 96 -32.5t36 -82.5q0 -52 -40 -87t-101 -35q-71 0 -110.5 46zM285 339q26 22 26 58q0 34 -24 55t-68 21
q-29 0 -57.5 -6.5t-50.5 -17.5q0 -64 27 -98t76 -34q45 0 71 22z" />
    <glyph glyph-name="seven.numr" horiz-adv-x="403" 
d="M291 614h-226v42h279v-25l-167 -348h-49z" />
    <glyph glyph-name="eight.numr" horiz-adv-x="438" 
d="M112.5 304.5q-41.5 28.5 -41.5 75.5q0 29 19 55.5t54 45.5q-59 29 -59 84q0 42 38.5 69t97.5 27q61 0 98.5 -27.5t37.5 -71.5q0 -26 -15.5 -49.5t-44.5 -40.5q70 -33 70 -93q0 -47 -41 -75t-106 -28q-66 0 -107.5 28.5zM299.5 519q15.5 20 15.5 41q0 29 -25.5 46
t-68.5 17q-41 0 -67 -16t-26 -41q0 -28 25 -44.5t78 -29.5l24 -5q29 12 44.5 32zM293.5 332.5q29.5 17.5 29.5 47.5q0 31 -27 47t-84 31l-28 7q-32 -14 -50.5 -35t-18.5 -45q0 -31 29.5 -50.5t74.5 -19.5t74.5 17.5z" />
    <glyph glyph-name="nine.numr" horiz-adv-x="416" 
d="M117 290q-31 14 -52 38l29 28q18 -20 39.5 -29t52.5 -9q53 0 83 34.5t35 99.5q-53 -25 -113 -25t-95.5 31.5t-35.5 82.5t40 85.5t100 34.5q71 0 110.5 -47t39.5 -130q0 -100 -42 -154t-121 -54q-39 0 -70 14zM304 491q-1 63 -27 95.5t-75 32.5q-43 0 -69.5 -21.5
t-26.5 -56.5t24 -54t67 -19q59 0 107 23z" />
    <glyph glyph-name="uni2070" unicode="&#x2070;" horiz-adv-x="435" 
d="M99.5 397.5q-44.5 53.5 -44.5 139.5q0 55 20.5 98.5t57.5 68.5t85 25q73 0 118 -53.5t45 -138.5q0 -56 -20.5 -99.5t-57.5 -68.5t-85 -25q-74 0 -118.5 53.5zM302.5 429q30.5 41 30.5 108t-30 108t-84 41q-55 0 -86 -41.5t-31 -107.5t30.5 -107.5t85.5 -41.5
q54 0 84.5 41z" />
    <glyph glyph-name="uni00B9" unicode="&#xb9;" horiz-adv-x="312" 
d="M159 678l-95 -26v38l107 34h34v-373h-46v327z" />
    <glyph glyph-name="uni00B2" unicode="&#xb2;" horiz-adv-x="405" 
d="M224 523q31 28 46 49.5t15 43.5q0 33 -23 51.5t-66 18.5q-29 0 -57 -12.5t-50 -32.5l-27 31q28 26 64 42t74 16q62 0 97.5 -29.5t35.5 -78.5q0 -30 -17.5 -57.5t-50.5 -57.5l-130 -115h202v-41h-269v32z" />
    <glyph glyph-name="uni00B3" unicode="&#xb3;" horiz-adv-x="408" 
d="M119 358.5q-35 14.5 -60 38.5l28 31q48 -43 108 -43q45 0 72.5 21t27.5 54t-28 51.5t-76 18.5h-43v29l120 122h-196v42h255v-31l-123 -126q63 -2 101 -30t38 -77q0 -52 -39.5 -83.5t-106.5 -31.5q-43 0 -78 14.5z" />
    <glyph glyph-name="uni2074" unicode="&#x2074;" horiz-adv-x="422" 
d="M265 448h-213v30l213 246h44v-236h60v-40h-60v-97h-44v97zM265 488v181l-158 -181h158z" />
    <glyph glyph-name="uni2075" unicode="&#x2075;" horiz-adv-x="397" 
d="M59 396l29 29q43 -40 104 -40q42 0 67.5 21t25.5 56q0 34 -25.5 53t-69.5 19h-105v29l30 160h192v-42h-160l-19 -108h64q65 0 103 -30t38 -82q0 -53 -38 -85t-102 -32q-78 0 -134 52z" />
    <glyph glyph-name="uni2076" unicode="&#x2076;" horiz-adv-x="416" 
d="M105.5 390q-39.5 46 -39.5 130q0 95 44 152t121 57q38 0 68 -14.5t50 -38.5l-28 -27q-18 20 -39.5 29t-49.5 9q-51 0 -82.5 -35t-37.5 -96q52 25 113 25q60 0 96 -32.5t36 -82.5q0 -52 -40 -87t-101 -35q-71 0 -110.5 46zM285 407q26 22 26 58q0 34 -24 55t-68 21
q-29 0 -57.5 -6.5t-50.5 -17.5q0 -64 27 -98t76 -34q45 0 71 22z" />
    <glyph glyph-name="uni2077" unicode="&#x2077;" horiz-adv-x="403" 
d="M291 682h-226v42h279v-25l-167 -348h-49z" />
    <glyph glyph-name="uni2078" unicode="&#x2078;" horiz-adv-x="438" 
d="M112.5 372.5q-41.5 28.5 -41.5 75.5q0 29 19 55.5t54 45.5q-59 29 -59 84q0 42 38.5 69t97.5 27q61 0 98.5 -27.5t37.5 -71.5q0 -26 -15.5 -49.5t-44.5 -40.5q70 -33 70 -93q0 -47 -41 -75t-106 -28q-66 0 -107.5 28.5zM299.5 587q15.5 20 15.5 41q0 29 -25.5 46
t-68.5 17q-41 0 -67 -16t-26 -41q0 -28 25 -44.5t78 -29.5l24 -5q29 12 44.5 32zM293.5 400.5q29.5 17.5 29.5 47.5q0 31 -27 47t-84 31l-28 7q-32 -14 -50.5 -35t-18.5 -45q0 -31 29.5 -50.5t74.5 -19.5t74.5 17.5z" />
    <glyph glyph-name="uni2079" unicode="&#x2079;" horiz-adv-x="416" 
d="M117 358q-31 14 -52 38l29 28q18 -20 39.5 -29t52.5 -9q53 0 83 34.5t35 99.5q-53 -25 -113 -25t-95.5 31.5t-35.5 82.5t40 85.5t100 34.5q71 0 110.5 -47t39.5 -130q0 -100 -42 -154t-121 -54q-39 0 -70 14zM304 559q-1 63 -27 95.5t-75 32.5q-43 0 -69.5 -21.5
t-26.5 -56.5t24 -54t67 -19q59 0 107 23z" />
    <glyph glyph-name="fraction" unicode="&#x2044;" horiz-adv-x="111" 
d="M286 657h59l-520 -657h-59z" />
    <glyph glyph-name="onehalf" unicode="&#xbd;" horiz-adv-x="843" 
d="M603 657h59l-520 -657h-60zM159 610l-95 -26v38l107 34h34v-373h-46v327zM662 172q31 28 46 49.5t15 44.5q0 33 -23 51t-66 18q-29 0 -57 -12.5t-50 -32.5l-27 32q28 26 64 41.5t74 15.5q62 0 97.5 -29.5t35.5 -78.5q0 -55 -68 -115l-130 -115h202v-41h-270v32z" />
    <glyph glyph-name="onequarter" unicode="&#xbc;" horiz-adv-x="780" 
d="M607 657h59l-520 -657h-60zM159 610l-95 -26v38l107 34h34v-373h-46v327zM622 97h-212v30l212 246h44v-236h61v-40h-61v-97h-44v97zM622 137v182l-158 -182h158z" />
    <glyph glyph-name="threequarters" unicode="&#xbe;" horiz-adv-x="870" 
d="M698 657h59l-520 -657h-60zM119 290.5q-35 14.5 -60 38.5l28 31q48 -43 108 -43q45 0 72.5 21t27.5 54t-28 51.5t-76 18.5h-43v29l120 122h-196v42h255v-31l-123 -126q63 -2 101 -30t38 -77q0 -52 -39.5 -83.5t-106.5 -31.5q-43 0 -78 14.5zM713 97h-213v30l213 246h44
v-236h60v-40h-60v-97h-44v97zM713 137v182l-158 -182h158z" />
    <glyph glyph-name="period" unicode="." horiz-adv-x="253" 
d="M95.5 2.5q-11.5 12.5 -11.5 30.5q0 19 11.5 31t29.5 12q20 0 31.5 -11.5t11.5 -31.5q0 -19 -11.5 -31t-31.5 -12q-18 0 -29.5 12.5z" />
    <glyph glyph-name="comma" unicode="," horiz-adv-x="253" 
d="M82.5 -25q20.5 56 26.5 101h54q-6 -49 -28.5 -104.5t-51.5 -94.5h-49q28 42 48.5 98z" />
    <glyph glyph-name="colon" unicode=":" horiz-adv-x="253" 
d="M95.5 448.5q-11.5 12.5 -11.5 30.5q0 19 11.5 31t29.5 12q20 0 31.5 -11.5t11.5 -31.5q0 -19 -11.5 -31t-31.5 -12q-18 0 -29.5 12.5zM95.5 2.5q-11.5 12.5 -11.5 30.5q0 19 11.5 31t29.5 12q20 0 31.5 -11.5t11.5 -31.5q0 -19 -11.5 -31t-31.5 -12q-18 0 -29.5 12.5z
" />
    <glyph glyph-name="semicolon" unicode=";" horiz-adv-x="253" 
d="M95.5 448.5q-11.5 12.5 -11.5 30.5q0 19 11.5 31t29.5 12q20 0 31.5 -11.5t11.5 -31.5q0 -19 -11.5 -31t-31.5 -12q-18 0 -29.5 12.5zM82.5 -25q20.5 56 26.5 101h54q-6 -49 -28.5 -104.5t-51.5 -94.5h-49q28 42 48.5 98z" />
    <glyph glyph-name="ellipsis" unicode="&#x2026;" horiz-adv-x="683" 
d="M95.5 2.5q-11.5 12.5 -11.5 30.5q0 19 11.5 31t29.5 12q20 0 31.5 -11.5t11.5 -31.5q0 -19 -11.5 -31t-31.5 -12q-18 0 -29.5 12.5zM310.5 2.5q-11.5 12.5 -11.5 30.5q0 19 11.5 31t29.5 12q20 0 31.5 -11.5t11.5 -31.5q0 -19 -11.5 -31t-31.5 -12q-18 0 -29.5 12.5z
M525.5 2.5q-11.5 12.5 -11.5 30.5q0 19 11.5 31t29.5 12q20 0 31.5 -11.5t11.5 -31.5q0 -19 -11.5 -31t-31.5 -12q-18 0 -29.5 12.5z" />
    <glyph glyph-name="exclam" unicode="!" horiz-adv-x="244" 
d="M94 676h55l-4 -500h-47zM91.5 2.5q-11.5 12.5 -11.5 30.5q0 20 11 31.5t30 11.5q20 0 31.5 -11.5t11.5 -31.5q0 -18 -12 -30.5t-31 -12.5q-18 0 -29.5 12.5z" />
    <glyph glyph-name="exclamdown" unicode="&#xa1;" horiz-adv-x="246" 
d="M93.5 452q-11.5 12 -11.5 31t11.5 31t31.5 12q18 0 29.5 -12t11.5 -31t-11.5 -31t-29.5 -12q-20 0 -31.5 12zM101 341h46l5 -500h-56z" />
    <glyph glyph-name="question" unicode="?" horiz-adv-x="527" 
d="M240.5 273.5q15.5 30.5 37.5 53t58 53.5q38 32 59.5 62.5t21.5 66.5q0 62 -41 95t-118 33q-56 0 -104.5 -21.5t-87.5 -57.5l-31 34q42 43 102 68.5t123 25.5q99 0 153.5 -47.5t54.5 -127.5q0 -45 -23.5 -81.5t-64.5 -70.5q-53 -45 -79 -77t-26 -74v-32h-50v30
q0 37 15.5 67.5zM221.5 2.5q-11.5 12.5 -11.5 30.5q0 19 11.5 31t29.5 12q20 0 31.5 -11.5t11.5 -31.5q0 -19 -11.5 -31t-31.5 -12q-18 0 -29.5 12.5z" />
    <glyph glyph-name="questiondown" unicode="&#xbf;" horiz-adv-x="517" 
d="M244.5 452q-11.5 12 -11.5 31t11.5 31t31.5 12q18 0 29.5 -12t11.5 -31t-11.5 -31t-29.5 -12q-20 0 -31.5 12zM113.5 -122q-54.5 47 -54.5 127q0 45 23.5 81t64.5 72q52 43 78.5 76t26.5 74v33h50v-30q0 -37 -15.5 -67.5t-37 -53t-58.5 -53.5q-38 -32 -59.5 -62.5
t-21.5 -66.5q0 -62 41 -95.5t118 -33.5q56 0 104.5 21.5t87.5 58.5l31 -35q-42 -42 -102 -67.5t-123 -25.5q-99 0 -153.5 47z" />
    <glyph glyph-name="periodcentered" unicode="&#xb7;" horiz-adv-x="253" 
d="M95.5 324.5q-11.5 12.5 -11.5 30.5q0 19 11.5 31t29.5 12q20 0 31.5 -12t11.5 -31t-11.5 -31t-31.5 -12q-18 0 -29.5 12.5z" />
    <glyph glyph-name="bullet" unicode="&#x2022;" horiz-adv-x="367" 
d="M122.5 289.5q-25.5 25.5 -25.5 61.5q0 37 25 62t61 25t61.5 -25t25.5 -62t-25.5 -62t-61.5 -25q-35 0 -60.5 25.5z" />
    <glyph glyph-name="asterisk" unicode="*" horiz-adv-x="349" 
d="M156 519l-92 -66l-24 34l97 63l-97 62l24 34l92 -65l-3 113h43l-3 -113l92 65l24 -34l-97 -62l97 -63l-24 -34l-92 66l3 -113h-43z" />
    <glyph glyph-name="numbersign" unicode="#" horiz-adv-x="639" 
d="M167 178h-100l7 43h98l32 221h-99l6 43h98l20 142h47l-20 -142h175l20 142h47l-20 -142h93l-6 -43h-93l-31 -221h93l-7 -43h-93l-21 -149h-46l21 149h-175l-21 -149h-47zM394 221l31 221h-175l-31 -221h175z" />
    <glyph glyph-name="slash" unicode="/" horiz-adv-x="433" 
d="M359 735h54l-339 -865h-54z" />
    <glyph glyph-name="backslash" unicode="\" horiz-adv-x="433" 
d="M20 735h54l339 -865h-54z" />
    <glyph glyph-name="exclamdown.case" horiz-adv-x="244" 
d="M91.5 611.5q-11.5 11.5 -11.5 31.5q0 19 11.5 31t31.5 12q18 0 29.5 -12.5t11.5 -30.5q0 -19 -11.5 -31t-29.5 -12q-20 0 -31.5 11.5zM99 500h46l5 -500h-56z" />
    <glyph glyph-name="questiondown.case" horiz-adv-x="527" 
d="M238.5 611.5q-11.5 11.5 -11.5 31.5q0 19 11.5 31t31.5 12q18 0 29.5 -12.5t11.5 -30.5q0 -19 -11.5 -31t-29.5 -12q-20 0 -31.5 11.5zM108 37.5q-55 47.5 -55 127.5q0 45 23.5 81.5t64.5 70.5q37 31 57 51t34.5 45.5t14.5 54.5v32h49v-30q0 -53 -28.5 -91t-82.5 -83
q-38 -32 -59 -62.5t-21 -66.5q0 -62 40.5 -95t117.5 -33q56 0 105 21.5t88 57.5l31 -34q-43 -43 -103 -68.5t-123 -25.5q-98 0 -153 47.5z" />
    <glyph glyph-name="slash.case" horiz-adv-x="433" 
d="M359 768h54l-339 -864h-54z" />
    <glyph glyph-name="backslash.case" horiz-adv-x="433" 
d="M20 768h54l339 -864h-54z" />
    <glyph glyph-name="parenleft" unicode="(" horiz-adv-x="329" 
d="M121.5 66.5q-43.5 114.5 -43.5 236.5q0 119 44 234t123 198h57q-81 -86 -125.5 -201t-44.5 -231q0 -118 44.5 -233t125.5 -200h-57q-80 82 -123.5 196.5z" />
    <glyph glyph-name="parenright" unicode=")" horiz-adv-x="329" 
d="M152.5 70.5q44.5 114.5 44.5 231.5q0 118 -44.5 233t-125.5 200h58q80 -82 123 -196.5t43 -236.5q0 -119 -43.5 -234t-122.5 -198h-58q81 86 125.5 200.5z" />
    <glyph glyph-name="braceleft" unicode="{" horiz-adv-x="400" 
d="M172 -80.5q-49 49.5 -49 143.5v82q0 51 -20 84.5t-59 55.5v35q39 22 59 56t20 85v81q0 94 49 143.5t143 49.5h53l-10 -48h-46q-67 0 -102.5 -36t-35.5 -104v-87q0 -53 -19 -90t-57 -67q38 -30 57 -67t19 -90v-88q0 -68 35.5 -104t102.5 -36h46l10 -48h-53
q-94 0 -143 49.5z" />
    <glyph glyph-name="braceright" unicode="}" horiz-adv-x="400" 
d="M88 -82q68 0 103.5 36t35.5 104v87q0 53 18.5 90.5t56.5 66.5q-38 29 -56.5 66.5t-18.5 90.5v88q0 68 -35.5 104t-103.5 36h-45l-10 48h52q95 0 144 -49t49 -144v-82q0 -51 20 -84.5t58 -55.5v-35q-38 -22 -58 -56t-20 -85v-81q0 -94 -49.5 -143.5t-143.5 -49.5h-52
l10 48h45z" />
    <glyph glyph-name="bracketleft" unicode="[" horiz-adv-x="384" 
d="M106 735h245l-10 -48h-184v-769h184l10 -48h-245v865z" />
    <glyph glyph-name="bracketright" unicode="]" horiz-adv-x="384" 
d="M43 -82h184v769h-184l-10 48h245v-865h-245z" />
    <glyph glyph-name="parenleft.case" horiz-adv-x="329" 
d="M121.5 101.5q-43.5 114.5 -43.5 235.5q0 119 44 234t123 198h57q-81 -86 -125.5 -200.5t-44.5 -231.5t44.5 -232t125.5 -201h-57q-80 83 -123.5 197.5z" />
    <glyph glyph-name="parenright.case" horiz-adv-x="329" 
d="M152.5 105.5q44.5 114.5 44.5 231.5q0 118 -44.5 232.5t-125.5 199.5h58q80 -82 123 -196.5t43 -235.5q0 -119 -43.5 -234t-122.5 -199h-58q81 87 125.5 201.5z" />
    <glyph glyph-name="braceleft.case" horiz-adv-x="400" 
d="M172 -46.5q-49 49.5 -49 143.5v83q0 50 -20 83.5t-59 55.5v35q39 22 59 56t20 85v82q0 93 49 142.5t143 49.5h53l-10 -48h-46q-67 0 -102.5 -35.5t-35.5 -103.5v-87q0 -54 -19 -91t-57 -67q38 -30 57 -67t19 -90v-88q0 -68 35.5 -104t102.5 -36h46l10 -48h-53
q-94 0 -143 49.5z" />
    <glyph glyph-name="braceright.case" horiz-adv-x="400" 
d="M88 -47q68 0 103.5 35.5t35.5 103.5v87q0 54 18.5 91t56.5 67q-38 29 -56.5 66.5t-18.5 90.5v88q0 68 -35.5 104t-103.5 36h-45l-10 47h52q94 0 143.5 -49t49.5 -143v-83q0 -95 78 -139v-35q-38 -23 -58 -56.5t-20 -84.5v-82q0 -93 -49.5 -143t-143.5 -50h-52l10 49h45z
" />
    <glyph glyph-name="bracketleft.case" horiz-adv-x="384" 
d="M106 769h245l-10 -48h-184v-769h184l10 -48h-245v865z" />
    <glyph glyph-name="bracketright.case" horiz-adv-x="384" 
d="M43 -47h184v769h-184l-10 47h245v-865h-245z" />
    <glyph glyph-name="hyphen" unicode="-" horiz-adv-x="431" 
d="M63 316h306v-47h-306v47z" />
    <glyph glyph-name="uni00AD" unicode="&#xad;" horiz-adv-x="431" 
d="M63 316h306v-47h-306v47z" />
    <glyph glyph-name="endash" unicode="&#x2013;" horiz-adv-x="490" 
d="M0 316h490v-47h-490v47z" />
    <glyph glyph-name="emdash" unicode="&#x2014;" horiz-adv-x="980" 
d="M0 316h980v-47h-980v47z" />
    <glyph glyph-name="underscore" unicode="_" horiz-adv-x="490" 
d="M0 -89h490v-44h-490v44z" />
    <glyph glyph-name="hyphen.case" horiz-adv-x="431" 
d="M63 366h306v-47h-306v47z" />
    <glyph glyph-name="endash.case" horiz-adv-x="490" 
d="M0 365h490v-46h-490v46z" />
    <glyph glyph-name="emdash.case" horiz-adv-x="980" 
d="M0 365h980v-46h-980v46z" />
    <glyph glyph-name="quotesinglbase" unicode="&#x201a;" horiz-adv-x="238" 
d="M75 -24q21 56 26 100h54q-6 -49 -28.5 -104.5t-51.5 -94.5h-49q28 43 49 99z" />
    <glyph glyph-name="quotedblbase" unicode="&#x201e;" horiz-adv-x="371" 
d="M75 -24q21 56 26 100h54q-6 -49 -28.5 -104.5t-51.5 -94.5h-49q28 43 49 99zM208 -24q21 56 26 100h54q-6 -49 -28.5 -104.5t-51.5 -94.5h-49q28 43 49 99z" />
    <glyph glyph-name="quotedblleft" unicode="&#x201c;" horiz-adv-x="354" 
d="M87 584.5q21 51.5 49 91.5h46q-27 -42 -45.5 -93.5t-24.5 -95.5h-52q6 46 27 97.5zM220 584.5q21 51.5 49 91.5h46q-27 -42 -45.5 -93.5t-24.5 -95.5h-52q6 46 27 97.5z" />
    <glyph glyph-name="quotedblright" unicode="&#x201d;" horiz-adv-x="354" 
d="M87.5 581q18.5 51 23.5 95h53q-7 -47 -27.5 -98.5t-48.5 -90.5h-46q27 43 45.5 94zM220.5 581q18.5 51 23.5 95h53q-7 -47 -27.5 -98.5t-48.5 -90.5h-46q27 43 45.5 94z" />
    <glyph glyph-name="quoteleft" unicode="&#x2018;" horiz-adv-x="221" 
d="M87 584.5q21 51.5 49 91.5h46q-27 -42 -45.5 -93.5t-24.5 -95.5h-52q6 46 27 97.5z" />
    <glyph glyph-name="quoteright" unicode="&#x2019;" horiz-adv-x="221" 
d="M87.5 581q18.5 51 23.5 95h53q-7 -47 -27.5 -98.5t-48.5 -90.5h-46q27 43 45.5 94z" />
    <glyph glyph-name="guillemotleft" unicode="&#xab;" horiz-adv-x="444" 
d="M53 282l129 187h55l-125 -187l125 -187h-55zM207 282l130 187h55l-126 -187l126 -187h-55z" />
    <glyph glyph-name="guillemotright" unicode="&#xbb;" horiz-adv-x="444" 
d="M178 282l-126 187h55l130 -187l-130 -187h-55zM332 282l-126 187h56l129 -187l-129 -187h-56z" />
    <glyph glyph-name="guilsinglleft" unicode="&#x2039;" horiz-adv-x="290" 
d="M53 282l129 187h55l-125 -187l125 -187h-55z" />
    <glyph glyph-name="guilsinglright" unicode="&#x203a;" horiz-adv-x="290" 
d="M178 282l-126 187h55l130 -187l-130 -187h-55z" />
    <glyph glyph-name="quotedbl" unicode="&#x22;" horiz-adv-x="378" 
d="M82 676h55l-4 -249h-47zM241 676h55l-4 -249h-47z" />
    <glyph glyph-name="quotesingle" unicode="'" horiz-adv-x="219" 
d="M82 676h55l-4 -249h-47z" />
    <glyph glyph-name="guillemotleft.case" horiz-adv-x="444" 
d="M53 346l129 187h55l-125 -187l125 -187h-55zM207 346l130 187h55l-126 -187l126 -187h-55z" />
    <glyph glyph-name="guillemotright.case" horiz-adv-x="444" 
d="M178 346l-126 187h55l130 -187l-130 -187h-55zM332 346l-126 187h56l129 -187l-129 -187h-56z" />
    <glyph glyph-name="guilsinglleft.case" horiz-adv-x="290" 
d="M53 346l129 187h55l-125 -187l125 -187h-55z" />
    <glyph glyph-name="guilsinglright.case" horiz-adv-x="290" 
d="M178 346l-126 187h55l130 -187l-130 -187h-55z" />
    <glyph glyph-name="period.dnom" horiz-adv-x="149" 
d="M39 2.5q-10 10.5 -10 25.5q0 16 10 26t25 10q16 0 26.5 -10t10.5 -26q0 -15 -10.5 -25.5t-26.5 -10.5q-15 0 -25 10.5z" />
    <glyph glyph-name="comma.dnom" horiz-adv-x="149" 
d="M32 -8.5q14 38.5 19 70.5h51q-4 -34 -20.5 -72.5t-38.5 -67.5h-45q20 31 34 69.5z" />
    <glyph glyph-name="period.numr" horiz-adv-x="149" 
d="M48 285q-10 10 -10 26t10 26t25 10q16 0 26.5 -10t10.5 -26t-10.5 -26t-26.5 -10q-15 0 -25 10z" />
    <glyph glyph-name="comma.numr" horiz-adv-x="149" 
d="M31.5 274.5q14.5 38.5 18.5 70.5h51q-4 -34 -20.5 -72.5t-38.5 -67.5h-45q20 31 34.5 69.5z" />
    <glyph glyph-name="period.subs" horiz-adv-x="149" 
d="M48 -73.5q-10 10.5 -10 25.5q0 16 10 26t25 10q16 0 26.5 -10t10.5 -26q0 -15 -10.5 -25.5t-26.5 -10.5q-15 0 -25 10.5z" />
    <glyph glyph-name="comma.subs" horiz-adv-x="149" 
d="M31.5 -84.5q14.5 38.5 18.5 70.5h51q-4 -34 -20.5 -72.5t-38.5 -67.5h-45q20 31 34.5 69.5z" />
    <glyph glyph-name="uni00A0" unicode="&#xa0;" horiz-adv-x="255" 
 />
    <glyph glyph-name="cent" unicode="&#xa2;" 
d="M185.5 110.5q-48.5 34.5 -75 91t-26.5 127.5q0 69 27 125t75.5 91.5t111.5 43.5v109l51 14v-122q45 -4 84 -23t68 -51l-33 -31q-57 59 -137 59q-58 0 -102.5 -27t-69 -75.5t-24.5 -112.5q0 -63 24 -111.5t68 -75.5t101 -27q83 0 149 59l31 -32q-68 -66 -159 -73v-123
l-51 -13v137q-64 6 -112.5 40.5z" />
    <glyph glyph-name="currency" unicode="&#xa4;" 
d="M120 209q-36 56 -36 127q0 67 37 125l-79 79l36 35l77 -76q28 25 63 39t75 14q41 0 77 -13.5t63 -38.5l76 75l35 -35l-78 -78q37 -56 37 -126q0 -69 -38 -126l79 -80l-35 -35l-78 77q-56 -53 -138 -53t-139 51l-76 -75l-36 35zM375.5 188q36.5 23 57 62.5t20.5 85.5
t-20.5 85t-57 62t-82.5 23t-82.5 -23t-57 -62.5t-20.5 -84.5q0 -46 20.5 -85t57 -62.5t82.5 -23.5t82.5 23z" />
    <glyph glyph-name="dollar" unicode="$" 
d="M52 95l31 33q45 -44 97 -65t119 -21q81 0 126.5 32.5t45.5 92.5q0 61 -45 95t-143 56q-76 17 -121.5 39t-67.5 57t-22 89q0 44 25.5 80.5t71 59t101.5 26.5v114l51 14v-129q99 -10 175 -85l-32 -33q-35 35 -80 53.5t-93 18.5q-76 0 -123 -33t-47 -87q0 -42 18.5 -66.5
t57.5 -40t115 -32.5q107 -25 158 -72t51 -121q0 -77 -52.5 -123.5t-147.5 -51.5v-128l-51 -13v141q-128 9 -218 100z" />
    <glyph glyph-name="Euro" unicode="&#x20ac;" 
d="M197.5 53q-70.5 63 -94.5 170h-87l12 46h68q-4 25 -4 58q0 35 4 62h-80l12 45h77q26 106 98 169t169 63q56 0 103.5 -22t82.5 -62l-33 -32q-65 68 -154 68q-77 0 -134 -49.5t-80 -134.5h246l-12 -45h-244q-4 -27 -4 -62q0 -33 4 -58h221l-13 -46h-199q23 -85 79 -134.5
t133 -49.5q51 0 91.5 17t76.5 52l33 -33q-42 -43 -91 -64t-111 -21q-99 0 -169.5 63z" />
    <glyph glyph-name="florin" unicode="&#x192;" 
d="M72 47q54 0 86.5 17t51.5 52t33 94l27 106h-158v47h169l21 83q18 74 44.5 120t69.5 68.5t110 22.5h45v-48h-46q-54 0 -86.5 -17t-52 -51.5t-33.5 -93.5l-21 -84h160v-47h-171l-26 -105q-18 -74 -44.5 -119.5t-69 -68.5t-109.5 -23h-58v47h58z" />
    <glyph glyph-name="sterling" unicode="&#xa3;" 
d="M138 293h-98v46h107l22 106q22 104 78.5 158t159.5 54h125v-48h-128q-78 0 -122.5 -37.5t-62.5 -125.5l-22 -107h260v-46h-270l-52 -246h408v-47h-459v37z" />
    <glyph glyph-name="yen" unicode="&#xa5;" 
d="M267 132h-184v45h184v97h-184v45h159l-203 338h56l198 -334l200 334h53l-203 -338h159v-45h-185v-97h185v-45h-185v-132h-50v132z" />
    <glyph glyph-name="plus" unicode="+" 
d="M270 308h-181v45h181v182h46v-182h181v-45h-181v-182h-46v182z" />
    <glyph glyph-name="minus" unicode="&#x2212;" 
d="M110 354h366v-47h-366v47z" />
    <glyph glyph-name="multiply" unicode="&#xd7;" 
d="M125 195l136 135l-136 136l33 32l135 -135l135 135l33 -32l-136 -136l136 -135l-33 -32l-135 135l-135 -135z" />
    <glyph glyph-name="divide" unicode="&#xf7;" 
d="M263 446q-11 12 -11 30q0 19 11 30.5t29 11.5q19 0 30.5 -11.5t11.5 -30.5q0 -18 -11.5 -30t-30.5 -12q-18 0 -29 12zM110 354h366v-47h-366v47zM263 155q-11 12 -11 30t11 30t29 12q19 0 30.5 -12t11.5 -30t-11.5 -30t-30.5 -12q-18 0 -29 12z" />
    <glyph glyph-name="equal" unicode="=" 
d="M110 452h366v-46h-366v46zM110 256h366v-46h-366v46z" />
    <glyph glyph-name="notequal" unicode="&#x2260;" 
d="M143 121l53 89h-86v46h113l89 150h-202v46h229l63 106l41 -18l-53 -88h86v-46h-113l-89 -150h202v-46h-229l-63 -107z" />
    <glyph glyph-name="greater" unicode="&#x3e;" 
d="M128 175l277 156l-277 156l22 39l308 -176v-38l-308 -175z" />
    <glyph glyph-name="less" unicode="&#x3c;" 
d="M128 312v38l308 175l22 -38l-277 -156l277 -156l-22 -39z" />
    <glyph glyph-name="greaterequal" unicode="&#x2265;" 
d="M146 193l278 150l-278 151l19 40l311 -172v-37l-311 -171zM127 45h349v-45h-349v45z" />
    <glyph glyph-name="lessequal" unicode="&#x2264;" 
d="M110 325v37l311 172l19 -40l-278 -150l278 -151l-19 -39zM110 46h349v-46h-349v46z" />
    <glyph glyph-name="plusminus" unicode="&#xb1;" 
d="M270 313h-181v46h181v181h46v-181h181v-46h-181v-182h-46v182zM110 46h366v-46h-366v46z" />
    <glyph glyph-name="approxequal" unicode="&#x2248;" 
d="M337 373.5q-24 12.5 -53 35.5q-29 21 -48.5 31.5t-39.5 10.5q-77 0 -85 -81h-44q4 60 38 93t87 33q26 0 50 -12.5t62 -38.5q27 -20 46 -30t35 -10q34 0 54 22t24 62h44q-5 -59 -36.5 -93.5t-83.5 -34.5q-26 0 -50 12.5zM337 178.5q-24 12.5 -53 35.5q-29 21 -48.5 31.5
t-39.5 10.5q-77 0 -85 -81h-44q4 60 38 93t87 33q26 0 50 -12.5t62 -38.5q27 -20 46 -30t35 -10q34 0 54 22t24 62h44q-5 -59 -36.5 -93.5t-83.5 -34.5q-26 0 -50 12.5z" />
    <glyph glyph-name="asciitilde" unicode="~" 
d="M344.5 265.5q-22.5 12.5 -55.5 36.5q-29 21 -48.5 31.5t-39.5 10.5q-76 0 -84 -81h-44q4 60 37.5 93t86.5 33q27 0 52 -13t60 -38q29 -21 47 -30.5t35 -9.5q34 0 54 22t24 62h43q-4 -60 -36 -94.5t-84 -34.5q-25 0 -47.5 12.5z" />
    <glyph glyph-name="logicalnot" unicode="&#xac;" 
d="M431 364h-349v46h395v-228h-46v182z" />
    <glyph glyph-name="asciicircum" unicode="^" 
d="M269 676h50l179 -333h-51l-152 285l-155 -285h-52z" />
    <glyph glyph-name="uni00B5" unicode="&#xb5;" horiz-adv-x="571" 
d="M129 516v-289q0 -91 32.5 -140.5t109.5 -49.5q94 0 171 102v377h50v-516h-31l-17 85q-38 -47 -85 -71t-96 -24q-88 0 -134 66v-263l-51 -12v735h51z" />
    <glyph glyph-name="percent" unicode="%" horiz-adv-x="898" 
d="M99.5 329.5q-44.5 53.5 -44.5 139.5q0 55 20.5 98.5t57.5 68.5t85 25q73 0 118 -53.5t45 -138.5q0 -56 -20.5 -99.5t-57.5 -68.5t-85 -25q-74 0 -118.5 53.5zM679 657h59l-520 -657h-60zM302.5 361q30.5 41 30.5 108t-30 108t-84 41q-55 0 -86 -41.5t-31 -107.5
t30.5 -107.5t85.5 -41.5q54 0 84.5 41zM561.5 46.5q-44.5 53.5 -44.5 140.5q0 55 20.5 98.5t57.5 68t85 24.5q74 0 119 -53t45 -138q0 -56 -20.5 -100t-57.5 -69t-85 -25q-75 0 -119.5 53.5zM764.5 78.5q30.5 41.5 30.5 108.5q0 66 -30 107t-84 41t-85 -41.5t-31 -106.5
q0 -67 30 -108.5t85 -41.5q54 0 84.5 41.5z" />
    <glyph glyph-name="perthousand" unicode="&#x2030;" horiz-adv-x="1281" 
d="M99.5 329.5q-44.5 53.5 -44.5 139.5q0 55 20.5 98.5t57.5 68.5t85 25q73 0 118 -53.5t45 -138.5q0 -56 -20.5 -99.5t-57.5 -68.5t-85 -25q-74 0 -118.5 53.5zM679 657h59l-520 -657h-60zM302.5 361q30.5 41 30.5 108t-30 108t-84 41q-55 0 -86 -41.5t-31 -107.5
t30.5 -107.5t85.5 -41.5q54 0 84.5 41zM561.5 46.5q-44.5 53.5 -44.5 140.5q0 55 20.5 98.5t57.5 68t85 24.5q74 0 119 -53t45 -138q0 -56 -20.5 -100t-57.5 -69t-85 -25q-75 0 -119.5 53.5zM944.5 46.5q-44.5 53.5 -44.5 140.5q0 55 20.5 98.5t57.5 68t85 24.5
q74 0 118.5 -53t44.5 -138q0 -56 -20.5 -100t-57 -69t-84.5 -25q-75 0 -119.5 53.5zM764.5 78.5q30.5 41.5 30.5 108.5q0 66 -30 107t-84 41t-85 -41.5t-31 -106.5q0 -67 30 -108.5t85 -41.5q54 0 84.5 41.5zM1147.5 78.5q30.5 41.5 30.5 108.5q0 66 -30 107t-84 41
q-55 0 -86 -41.5t-31 -106.5q0 -67 30.5 -108.5t85.5 -41.5q54 0 84.5 41.5z" />
    <glyph glyph-name="at" unicode="@" horiz-adv-x="927" 
d="M249.5 -109q-88.5 52 -138.5 145.5t-50 213.5q0 123 59 220.5t157 151.5t208 54q116 0 204.5 -43.5t137 -120.5t48.5 -173q0 -82 -34 -146t-91.5 -99.5t-126.5 -35.5h-26l-10 51q-29 -28 -65 -44t-73 -16q-81 0 -128.5 56t-47.5 149q0 59 25 106t69.5 73.5t99.5 26.5
q30 0 65 -13.5t59 -33.5l7 39h39v-352q53 3 96 32.5t68 82.5t25 124q0 83 -42 149t-119.5 104t-179.5 38q-99 0 -185 -48t-138 -135t-52 -197q0 -106 44 -188.5t121.5 -128.5t175.5 -46q144 0 228 78l32 -34q-98 -92 -262 -92q-111 0 -199.5 52zM584 159v212q-52 42 -112 42
q-66 0 -107 -42.5t-41 -117.5q0 -73 35.5 -115t97.5 -42q69 0 127 63z" />
    <glyph glyph-name="ampersand" unicode="&#x26;" horiz-adv-x="639" 
d="M161 13.5q-54 23.5 -83.5 67t-29.5 99.5q0 65 41.5 113.5t105.5 74.5q-37 43 -54.5 77.5t-17.5 75.5q0 48 25 85.5t69.5 58.5t99.5 21q102 0 182 -90l-35 -33q-34 38 -69 56.5t-78 18.5q-66 0 -105.5 -33t-39.5 -87q0 -39 23.5 -73.5t79.5 -92.5l29 -31l174 -187
q52 72 52 180v33h48v-31q0 -63 -17.5 -118.5t-49.5 -98.5l92 -99h-62l-61 65q-38 -36 -87.5 -55.5t-106.5 -19.5q-71 0 -125 23.5zM448 99l-222 236q-55 -20 -91.5 -58.5t-36.5 -91.5q0 -66 53 -107t138 -41q94 0 159 62z" />
    <glyph glyph-name="paragraph" unicode="&#xb6;" horiz-adv-x="540" 
d="M285 -85q50 0 78.5 33t28.5 92v623l51 11v-631q0 -84 -41 -130t-114 -46h-23v48h20zM124.5 275.5q-69.5 52.5 -69.5 143.5q0 85 51 139.5t148 76.5l62 14v-426q-122 0 -191.5 52.5z" />
    <glyph glyph-name="section" unicode="&#xa7;" horiz-adv-x="437" 
d="M153 -88q60 0 90.5 23t30.5 66q0 27 -15.5 53t-47.5 54l-91 83q-33 30 -48 59t-15 64q0 43 30.5 76t79.5 42q-50 53 -50 107q0 64 46 100.5t128 36.5h57v-45h-61q-58 0 -89.5 -24t-31.5 -67q0 -28 15.5 -52t47.5 -54l90 -81q61 -54 61 -121q0 -43 -31 -76t-79 -42
q55 -58 55 -111q0 -65 -45 -101t-128 -36h-66v46h67zM304 175q28 24 28 57q0 25 -12 46.5t-36 44.5l-79 72h-4q-42 -1 -69.5 -24t-27.5 -57q0 -25 12 -47t38 -46l77 -70h4q41 0 69 24z" />
    <glyph glyph-name="copyright" unicode="&#xa9;" horiz-adv-x="798" 
d="M222 33.5q-80 43.5 -127 122.5t-47 182q0 100 47.5 179.5t127.5 124t175 44.5t176 -44t128.5 -123.5t47.5 -180.5q0 -102 -48 -181t-128.5 -123t-175.5 -44q-96 0 -176 43.5zM553 73q69 38 109 107t40 158q0 88 -39.5 157t-109 107.5t-155.5 38.5q-85 0 -154 -38.5
t-108.5 -108t-39.5 -156.5q0 -90 39 -159t107.5 -106.5t155.5 -37.5q86 0 155 38zM308.5 171q-41.5 24 -64.5 67.5t-23 99.5q0 55 24 98.5t66.5 68t95.5 24.5q36 0 69.5 -15t55.5 -43l-27 -29q-23 22 -46.5 32t-50.5 10q-63 0 -101 -39.5t-38 -106.5q0 -66 37.5 -105.5
t99.5 -39.5q61 0 107 41l27 -31q-56 -56 -137 -56q-53 0 -94.5 24z" />
    <glyph glyph-name="registered" unicode="&#xae;" horiz-adv-x="541" 
d="M156 295q-52 28 -83 79t-31 118q0 64 31 115.5t83.5 80.5t114.5 29q61 0 113.5 -28.5t83.5 -80t31 -116.5q0 -66 -31.5 -117.5t-83.5 -79.5t-113 -28q-63 0 -115 28zM367.5 327.5q42.5 23.5 66.5 66t24 98.5q0 55 -24 97.5t-66.5 66t-96.5 23.5t-97 -23.5t-67 -66
t-24 -97.5q0 -56 24 -98.5t66.5 -66t97.5 -23.5q54 0 96.5 23.5zM274 611q39 0 63 -19.5t24 -52.5q0 -21 -12 -36.5t-33 -23.5q18 -14 33 -40l31 -61h-45l-21 40q-13 25 -24 34.5t-37 9.5h-28v-84h-39v233h88zM305 509q13 10 13 28q0 39 -50 39h-43v-77h43q24 0 37 10z" />
    <glyph glyph-name="trademark" unicode="&#x2122;" horiz-adv-x="825" 
d="M148 634h-123v42h291v-42h-124v-310h-44v310zM384 676h43l135 -237l146 237h42v-352h-44v270l-126 -199h-36l-117 197v-268h-43v352z" />
    <glyph glyph-name="degree" unicode="&#xb0;" horiz-adv-x="373" 
d="M118 423.5q-31 18.5 -49.5 49.5t-18.5 68t18.5 68t50 49.5t67.5 18.5q37 0 68.5 -18.5t50 -49.5t18.5 -68t-18.5 -68t-50 -49.5t-68.5 -18.5t-68 18.5zM251 475.5q27 27.5 27 65.5q0 39 -27 66t-65 27q-37 0 -64 -27.5t-27 -65.5t27 -65.5t64 -27.5q38 0 65 27.5z" />
    <glyph glyph-name="bar" unicode="|" horiz-adv-x="263" 
d="M106 735h51v-865h-51v865z" />
    <glyph glyph-name="brokenbar" unicode="&#xa6;" horiz-adv-x="263" 
d="M106 735h51v-326h-51v326zM106 197h51v-327h-51v327z" />
    <glyph glyph-name="dagger" unicode="&#x2020;" horiz-adv-x="354" 
d="M154 520h-125v42h125v114l45 10v-124h126v-42h-126v-221h-45v221z" />
    <glyph glyph-name="daggerdbl" unicode="&#x2021;" horiz-adv-x="364" 
d="M160 409h-119v42h119v94h-119v42h119v89l44 10v-99h119v-42h-119v-94h119v-42h-119v-104h-44v104z" />
    <glyph glyph-name="at.case" horiz-adv-x="927" 
d="M249.5 -42q-88.5 52 -138.5 145.5t-50 212.5q0 123 59 220.5t156.5 152t208.5 54.5q116 0 204.5 -43.5t137 -120.5t48.5 -173q0 -83 -34 -147t-91.5 -99t-126.5 -35h-26l-10 50q-29 -28 -65 -43.5t-73 -15.5q-81 0 -128.5 55.5t-47.5 149.5q0 59 25 105.5t69.5 73
t99.5 26.5q31 0 65.5 -13.5t58.5 -32.5l7 39h39v-352q53 2 96 31.5t68 83t25 124.5q0 83 -42 149t-119.5 104t-179.5 38q-99 0 -185 -48t-138 -135t-52 -197q0 -107 44 -189.5t121.5 -128t175.5 -45.5q144 0 228 78l32 -35q-98 -91 -262 -91q-111 0 -199.5 52zM584 226v211
q-53 43 -112 43q-66 0 -107 -42.5t-41 -117.5q0 -73 35.5 -115.5t97.5 -42.5q68 0 127 64z" />
    <glyph glyph-name="uni0308" unicode="&#x308;" horiz-adv-x="0" 
d="M-407.5 640q-10.5 11 -10.5 27q0 17 10.5 28.5t27.5 11.5q16 0 27 -11.5t11 -28.5q0 -16 -11 -27t-27 -11q-17 0 -27.5 11zM-235.5 640q-10.5 11 -10.5 27q0 17 10.5 28.5t26.5 11.5q17 0 28 -11.5t11 -28.5q0 -16 -11 -27t-28 -11q-16 0 -26.5 11z" />
    <glyph glyph-name="uni0307" unicode="&#x307;" horiz-adv-x="0" 
d="M-321.5 640q-10.5 11 -10.5 27q0 17 10.5 28.5t27.5 11.5t27.5 -11.5t10.5 -28.5q0 -16 -10.5 -27t-27.5 -11t-27.5 11z" />
    <glyph glyph-name="gravecomb" unicode="&#x300;" horiz-adv-x="0" 
d="M-388 730h67l121 -131h-58z" />
    <glyph glyph-name="acutecomb" unicode="&#x301;" horiz-adv-x="0" 
d="M-266 730h66l-130 -131h-58z" />
    <glyph glyph-name="uni0302" unicode="&#x302;" horiz-adv-x="0" 
d="M-320 730h53l118 -131h-56l-89 93l-89 -93h-55z" />
    <glyph glyph-name="uni030C" unicode="&#x30c;" horiz-adv-x="0" 
d="M-438 730h56l89 -93l89 93h55l-118 -131h-53z" />
    <glyph glyph-name="uni030A" unicode="&#x30a;" horiz-adv-x="0" 
d="M-375.5 623.5q-34.5 33.5 -34.5 81.5t34.5 81t81.5 33t82 -33.5t35 -80.5q0 -49 -35 -82t-82 -33t-81.5 33.5zM-241 650.5q22 21.5 22 54.5q0 32 -22 53t-53 21t-52.5 -21t-21.5 -53t21.5 -54t52.5 -22t53 21.5z" />
    <glyph glyph-name="tildecomb" unicode="&#x303;" horiz-adv-x="0" 
d="M-254.5 622.5q-15.5 6.5 -42.5 20.5q-23 13 -35.5 18.5t-28.5 5.5q-21 0 -41.5 -10.5t-44.5 -31.5v48q23 20 43 29.5t43 9.5q19 0 34 -5.5t28 -12l17 -8.5q5 -3 18 -10t24.5 -11t22.5 -4q24 0 43.5 11t43.5 31v-48q-23 -19 -42.5 -29t-45.5 -10q-21 0 -36.5 6.5z" />
    <glyph glyph-name="uni0327" unicode="&#x327;" horiz-adv-x="0" 
d="M-346 -135q34 0 55.5 14.5t21.5 43.5q0 36 -40 74l43 8q44 -42 44 -88t-34 -70t-89 -24h-21v42h20z" />
    <glyph glyph-name="dieresis" unicode="&#xa8;" horiz-adv-x="588" 
d="M180.5 640q-10.5 11 -10.5 27q0 17 10.5 28.5t27.5 11.5q16 0 27 -11.5t11 -28.5q0 -16 -11 -27t-27 -11q-17 0 -27.5 11zM352.5 640q-10.5 11 -10.5 27q0 17 10.5 28.5t26.5 11.5q17 0 28 -11.5t11 -28.5q0 -16 -11 -27t-28 -11q-16 0 -26.5 11z" />
    <glyph glyph-name="dotaccent" unicode="&#x2d9;" horiz-adv-x="588" 
d="M266.5 640q-10.5 11 -10.5 27q0 17 10.5 28.5t27.5 11.5t27.5 -11.5t10.5 -28.5q0 -16 -10.5 -27t-27.5 -11t-27.5 11z" />
    <glyph glyph-name="grave" unicode="`" horiz-adv-x="588" 
d="M200 730h67l121 -131h-58z" />
    <glyph glyph-name="acute" unicode="&#xb4;" horiz-adv-x="588" 
d="M322 730h66l-130 -131h-58z" />
    <glyph glyph-name="circumflex" unicode="&#x2c6;" horiz-adv-x="588" 
d="M268 730h53l118 -131h-56l-89 93l-89 -93h-55z" />
    <glyph glyph-name="caron" unicode="&#x2c7;" horiz-adv-x="588" 
d="M150 730h56l89 -93l89 93h55l-118 -131h-53z" />
    <glyph glyph-name="ring" unicode="&#x2da;" horiz-adv-x="588" 
d="M212.5 623.5q-34.5 33.5 -34.5 81.5t34.5 81t81.5 33t82 -33.5t35 -80.5q0 -49 -35 -82t-82 -33t-81.5 33.5zM347 650.5q22 21.5 22 54.5q0 32 -22 53t-53 21t-52.5 -21t-21.5 -53t22 -54t52 -22q31 0 53 21.5z" />
    <glyph glyph-name="tilde" unicode="&#x2dc;" horiz-adv-x="588" 
d="M333.5 622.5q-15.5 6.5 -42.5 20.5q-23 13 -35.5 18.5t-28.5 5.5q-21 0 -41.5 -10.5t-44.5 -31.5v48q23 20 43 29.5t43 9.5q19 0 34 -5.5t28 -12l17 -8.5q5 -3 18 -10t24.5 -11t22.5 -4q24 0 43.5 11t43.5 31v-48q-23 -19 -42.5 -29t-45.5 -10q-21 0 -36.5 6.5z" />
    <glyph glyph-name="cedilla" unicode="&#xb8;" horiz-adv-x="588" 
d="M242 -135q34 0 55.5 14.5t21.5 43.5q0 36 -40 74l43 8q44 -42 44 -88t-34 -70t-89 -24h-21v42h20z" />
    <glyph glyph-name="uni0308.case" horiz-adv-x="0" 
d="M-408 772.5q-11 10.5 -11 26.5q0 17 11 27.5t28 10.5q16 0 27.5 -11t11.5 -27t-11 -26.5t-28 -10.5t-28 10.5zM-236 772.5q-11 10.5 -11 26.5t11 27t28 11t28 -10.5t11 -27.5q0 -16 -11 -26.5t-28 -10.5t-28 10.5z" />
    <glyph glyph-name="uni0307.case" horiz-adv-x="0" 
d="M-322 781.5q-11 10.5 -11 26.5q0 17 11 27.5t28 10.5t28 -11t11 -27t-11 -26.5t-28 -10.5t-28 10.5z" />
    <glyph glyph-name="gravecomb.case" horiz-adv-x="0" 
d="M-389 866h69l122 -122h-60z" />
    <glyph glyph-name="acutecomb.case" horiz-adv-x="0" 
d="M-267 866h69l-131 -122h-60z" />
    <glyph glyph-name="uni0302.case" horiz-adv-x="0" 
d="M-321 866h56l119 -122h-59l-89 85l-89 -85h-58z" />
    <glyph glyph-name="uni030C.case" horiz-adv-x="0" 
d="M-441 866h59l89 -86l89 86h58l-120 -122h-56z" />
    <glyph glyph-name="uni030A.case" horiz-adv-x="0" 
d="M-375.5 771.5q-34.5 33.5 -34.5 81.5t34.5 81t81.5 33t82 -33.5t35 -80.5q0 -49 -35 -82t-82 -33t-81.5 33.5zM-241 799q22 22 22 54t-22 53t-53 21t-52.5 -21t-21.5 -53t21.5 -54t52.5 -22t53 22z" />
    <glyph glyph-name="tildecomb.case" horiz-adv-x="0" 
d="M-257.5 767.5q-17.5 6.5 -37.5 19.5q-33 21 -59 21q-41 0 -91 -39v46q45 37 90 37q39 0 75 -24q17 -11 31.5 -17t30.5 -6q26 0 48 10.5t44 28.5v-47q-43 -36 -91 -36q-23 0 -40.5 6.5z" />
    <glyph glyph-name="uni0327.case" horiz-adv-x="0" 
d="M-348 -135q35 0 57 14t22 43q0 35 -41 76l44 8q45 -43 45 -89q0 -47 -34.5 -71.5t-91.5 -24.5h-20v44h19z" />
    <glyph glyph-name="gravecomb.narrow.case" horiz-adv-x="0" 
d="M-378 866h63l97 -122h-55z" />
    <glyph glyph-name="acutecomb.narrow.case" horiz-adv-x="0" 
d="M-282 866h63l-105 -122h-54z" />
    <glyph glyph-name="gravecomb.narrow" horiz-adv-x="0" 
d="M-378 730h63l96 -131h-54z" />
    <glyph glyph-name="acutecomb.narrow" horiz-adv-x="0" 
d="M-281 730h62l-105 -131h-54z" />
    <glyph glyph-name="periodsuperior" horiz-adv-x="149" 
d="M48 353q-10 10 -10 26t10 26t25 10q16 0 26.5 -10t10.5 -26t-10.5 -26t-26.5 -10q-15 0 -25 10z" />
    <glyph glyph-name="commasuperior" horiz-adv-x="149" 
d="M37 342.5q14 38.5 19 70.5h50q-5 -35 -20.5 -73.5t-37.5 -66.5h-45q20 31 34 69.5z" />
    </font>
</defs>
</svg>
