<?xml version="1.0" standalone="no"?>
<!DOCTYPE svg PUBLIC "-//W3C//DTD SVG 1.1//EN" "http://www.w3.org/Graphics/SVG/1.1/DTD/svg11.dtd" >
<svg xmlns="http://www.w3.org/2000/svg" xmlns:xlink="http://www.w3.org/1999/xlink" version="1.1">
<metadata>
Created by FontForge 20190801 at Thu Dec 19 10:01:09 2019
 By Henrique Beier
Copyright (c) 2019 Banco Bradesco S.A. All rights reserved.
</metadata>
<defs>
<font id="BradescoSans-Bold" horiz-adv-x="586" >
  <font-face 
    font-family="Bradesco Sans"
    font-weight="700"
    font-stretch="normal"
    units-per-em="1000"
    panose-1="0 0 8 0 0 0 0 0 0 0"
    ascent="800"
    descent="-200"
    x-height="525"
    cap-height="676"
    bbox="-499 -225 1408 1001"
    underline-thickness="50"
    underline-position="-100"
    unicode-range="U+0020-FB02"
  />
<missing-glyph horiz-adv-x="471" 
d="M386 -212h-298v942h298v-942zM158 667v-31h61v-35h-62v-31h157v31h-62v35h62v31h-156zM157 545v-98h157v32h-62v66h-95zM219 479h-31v34h31v-34zM157 422v-31h62v-35h-62v-31h95v66h62v31h-157zM283 365v-62h-126v-32h157v94h-31zM219 251v-53h33v21h31v-44h-95v76h-31
v-107h157v107h-95zM157 88v-107h157v107h-157zM283 12h-95v44h95v-44zM157 -41v-31h66l-66 -44v-31h157v31h-96l66 44h30v31h-157z" />
    <glyph glyph-name="fi" unicode="fi" horiz-adv-x="738" 
d="M533.5 616.5q-24.5 22.5 -24.5 58.5q0 35 24.5 57.5t62.5 22.5t63.5 -22.5t25.5 -57.5q0 -36 -25 -58.5t-64 -22.5q-38 0 -62.5 22.5zM94 639.5q28 52.5 79.5 80.5t118.5 28q49 0 90.5 -16t73.5 -44l-63 -90q-18 14 -37 21.5t-45 7.5q-44 0 -69 -25t-25 -71v-11h202v-126
h-202v-394h-151v517q0 70 28 122.5zM520 525h151v-525h-151v525z" />
    <glyph glyph-name="fl" unicode="fl" horiz-adv-x="796" 
d="M94 639.5q28 52.5 79.5 80.5t118.5 28q49 0 90.5 -16t73.5 -44l-63 -90q-18 14 -37 21.5t-45 7.5q-44 0 -69 -25t-25 -71v-11h202v-126h-202v-394h-151v517q0 70 28 122.5zM575 47.5q-51 55.5 -51 160.5v515l151 22v-537q0 -43 21 -67t60 -24h15v-125h-48
q-97 0 -148 55.5z" />
    <glyph glyph-name=".notdef" horiz-adv-x="471" 
d="M386 -212h-298v942h298v-942zM158 667v-31h61v-35h-62v-31h157v31h-62v35h62v31h-156zM157 545v-98h157v32h-62v66h-95zM219 479h-31v34h31v-34zM157 422v-31h62v-35h-62v-31h95v66h62v31h-157zM283 365v-62h-126v-32h157v94h-31zM219 251v-53h33v21h31v-44h-95v76h-31
v-107h157v107h-95zM157 88v-107h157v107h-157zM283 12h-95v44h95v-44zM157 -41v-31h66l-66 -44v-31h157v31h-96l66 44h30v31h-157z" />
    <glyph glyph-name="space" unicode=" " horiz-adv-x="255" 
 />
    <glyph glyph-name="A" unicode="A" horiz-adv-x="703" 
d="M271 676h163l254 -676h-163l-49 145h-255l-49 -145h-157zM433 275l-84 247l-85 -247h169z" />
    <glyph glyph-name="Aacute" unicode="&#xc1;" horiz-adv-x="703" 
d="M271 676h163l254 -676h-163l-49 145h-255l-49 -145h-157zM433 275l-84 247l-85 -247h169zM386 889h161l-156 -147h-145z" />
    <glyph glyph-name="Acircumflex" unicode="&#xc2;" horiz-adv-x="703" 
d="M271 676h163l254 -676h-163l-49 145h-255l-49 -145h-157zM433 275l-84 247l-85 -247h169zM283 889h137l136 -147h-134l-70 71l-72 -71h-134z" />
    <glyph glyph-name="Adieresis" unicode="&#xc4;" horiz-adv-x="703" 
d="M271 676h163l254 -676h-163l-49 145h-255l-49 -145h-157zM433 275l-84 247l-85 -247h169zM181.5 755q-23.5 21 -23.5 54t23 54t58 21q36 0 59.5 -21t23.5 -54t-23.5 -54t-59.5 -21q-34 0 -57.5 21zM405.5 755q-23.5 21 -23.5 54t23.5 54t59.5 21q35 0 58 -21t23 -54
t-23 -54t-58 -21q-36 0 -59.5 21z" />
    <glyph glyph-name="Agrave" unicode="&#xc0;" horiz-adv-x="703" 
d="M271 676h163l254 -676h-163l-49 145h-255l-49 -145h-157zM433 275l-84 247l-85 -247h169zM158 889h161l140 -147h-145z" />
    <glyph glyph-name="Aring" unicode="&#xc5;" horiz-adv-x="703" 
d="M688 0h-163l-49 145h-255l-49 -145h-157l242 639q-22 18 -34.5 44t-12.5 55q0 37 19 67.5t50.5 48t69.5 17.5q37 0 69 -17.5t50.5 -48t18.5 -67.5q0 -27 -11 -51t-30 -43zM309 777.5q-16 -15.5 -16 -39.5q0 -23 16 -39.5t40 -16.5q23 0 39 16.5t16 39.5q0 24 -16 39.5
t-39 15.5q-24 0 -40 -15.5zM264 275h169l-84 247z" />
    <glyph glyph-name="Atilde" unicode="&#xc3;" horiz-adv-x="703" 
d="M271 676h163l254 -676h-163l-49 145h-255l-49 -145h-157zM433 275l-84 247l-85 -247h169zM395 743.5q-19 6.5 -43 19.5q-25 14 -40.5 20.5t-35.5 6.5q-27 0 -50.5 -9t-52.5 -27v103q27 18 51.5 27.5t52.5 9.5q26 0 46 -6.5t43 -19.5q5 -2 21 -10.5t29 -12t26 -3.5
q31 0 54 9.5t51 27.5v-104q-26 -18 -51 -28t-57 -10q-25 0 -44 6.5z" />
    <glyph glyph-name="AE" unicode="&#xc6;" horiz-adv-x="1049" 
d="M472 676h520v-138h-319v-127h279v-136h-279v-135h328v-140h-479v143h-250l-98 -143h-173zM522 273v238l-163 -238h163z" />
    <glyph glyph-name="B" unicode="B" horiz-adv-x="640" 
d="M333 676q107 0 168 -48.5t61 -131.5q0 -42 -21 -76.5t-58 -57.5q55 -24 87 -68t32 -100q0 -89 -62 -141.5t-170 -52.5h-293v676h256zM391 425.5q26 20.5 26 55.5q0 36 -26.5 57t-77.5 21h-93v-154h95q50 0 76 20.5zM427.5 139q28.5 22 28.5 63q0 35 -28 57t-78 22h-130
v-164h126q53 0 81.5 22z" />
    <glyph glyph-name="C" unicode="C" horiz-adv-x="660" 
d="M207.5 31.5q-74.5 43.5 -115.5 122.5t-41 183q0 99 43.5 179t119 126t169.5 46q72 0 135.5 -30.5t103.5 -79.5l-96 -96q-56 64 -137 64q-53 0 -93.5 -26.5t-62.5 -74t-22 -108.5q0 -59 22.5 -106.5t63 -74t91.5 -26.5q82 0 147 68l94 -99q-45 -52 -108.5 -81.5
t-140.5 -29.5q-98 0 -172.5 43.5z" />
    <glyph glyph-name="Ccedilla" unicode="&#xc7;" horiz-adv-x="660" 
d="M441 -7q30 -36 30 -78q0 -60 -48.5 -93.5t-133.5 -33.5h-39v102h35q31 0 49.5 11.5t18.5 32.5q0 16 -6.5 29t-20.5 29q-83 11 -145 57t-96 120t-34 168q0 99 43.5 179t119 126t169.5 46q72 0 135.5 -30.5t103.5 -79.5l-96 -96q-56 64 -137 64q-53 0 -93.5 -26.5
t-62.5 -74t-22 -108.5q0 -59 22.5 -106.5t63 -74t91.5 -26.5q82 0 147 68l94 -99q-75 -86 -188 -106z" />
    <glyph glyph-name="D" unicode="D" horiz-adv-x="727" 
d="M335 676q100 0 178 -42.5t121 -119t43 -175.5t-43.5 -176t-121.5 -120t-177 -43h-258v676h258zM468 193.5q50 53.5 50 145.5q0 90 -49.5 144t-138.5 54h-98v-397h97q89 0 139 53.5z" />
    <glyph glyph-name="Eth" unicode="&#xd0;" horiz-adv-x="763" 
d="M33 272v133h80v271h258q100 0 178 -42.5t121 -119t43 -175.5t-43.5 -176t-121.5 -120t-177 -43h-258v272h-80zM504 193.5q50 53.5 50 145.5q0 90 -49.5 144t-138.5 54h-98v-132h153v-133h-153v-132h97q89 0 139 53.5z" />
    <glyph glyph-name="E" unicode="E" horiz-adv-x="604" 
d="M77 676h470v-138h-319v-127h279v-136h-279v-135h328v-140h-479v676z" />
    <glyph glyph-name="Eacute" unicode="&#xc9;" horiz-adv-x="604" 
d="M77 676h470v-138h-319v-127h279v-136h-279v-135h328v-140h-479v676zM351 889h161l-156 -147h-145z" />
    <glyph glyph-name="Ecircumflex" unicode="&#xca;" horiz-adv-x="604" 
d="M77 676h470v-138h-319v-127h279v-136h-279v-135h328v-140h-479v676zM249 889h137l136 -147h-134l-70 71l-72 -71h-134z" />
    <glyph glyph-name="Edieresis" unicode="&#xcb;" horiz-adv-x="604" 
d="M77 676h470v-138h-319v-127h279v-136h-279v-135h328v-140h-479v676zM147.5 755q-23.5 21 -23.5 54t23 54t58 21q36 0 59.5 -21t23.5 -54t-23.5 -54t-59.5 -21q-34 0 -57.5 21zM371.5 755q-23.5 21 -23.5 54t23.5 54t59.5 21q35 0 58 -21t23 -54t-23 -54t-58 -21
q-36 0 -59.5 21z" />
    <glyph glyph-name="Egrave" unicode="&#xc8;" horiz-adv-x="604" 
d="M77 676h470v-138h-319v-127h279v-136h-279v-135h328v-140h-479v676zM123 889h161l140 -147h-145z" />
    <glyph glyph-name="F" unicode="F" horiz-adv-x="585" 
d="M77 676h466v-142h-314v-146h274v-142h-274v-246h-152v676z" />
    <glyph glyph-name="G" unicode="G" horiz-adv-x="701" 
d="M207.5 31q-74.5 43 -115.5 122t-41 184q0 100 43.5 180t120.5 125.5t173 45.5q74 0 138.5 -30.5t103.5 -79.5l-95 -96q-56 64 -141 64q-84 0 -135 -57.5t-51 -151.5q0 -62 22 -109.5t62 -73t92 -25.5q72 0 124 31v91h-130v121h264v-284q-48 -46 -119.5 -73t-143.5 -27
q-97 0 -171.5 43z" />
    <glyph glyph-name="H" unicode="H" horiz-adv-x="733" 
d="M77 676h156v-256h267v256h156v-676h-156v271h-267v-271h-156v676z" />
    <glyph glyph-name="I" unicode="I" horiz-adv-x="310" 
d="M77 676h156v-676h-156v676z" />
    <glyph glyph-name="Iacute" unicode="&#xcd;" horiz-adv-x="310" 
d="M77 676h156v-676h-156v676zM189 889h151l-125 -147h-138z" />
    <glyph glyph-name="Icircumflex" unicode="&#xce;" horiz-adv-x="310" 
d="M77 676h156v-676h-156v676zM86 889h137l136 -147h-134l-70 71l-72 -71h-134z" />
    <glyph glyph-name="Idieresis" unicode="&#xcf;" horiz-adv-x="310" 
d="M77 676h156v-676h-156v676zM-15.5 755q-23.5 21 -23.5 54t23 54t58 21q36 0 59.5 -21t23.5 -54t-23.5 -54t-59.5 -21q-34 0 -57.5 21zM208.5 755q-23.5 21 -23.5 54t23.5 54t59.5 21q35 0 58 -21t23 -54t-23 -54t-58 -21q-36 0 -59.5 21z" />
    <glyph glyph-name="Igrave" unicode="&#xcc;" horiz-adv-x="310" 
d="M77 676h156v-676h-156v676zM-29 889h151l112 -147h-138z" />
    <glyph glyph-name="J" unicode="J" horiz-adv-x="463" 
d="M92 148q68 0 106 40t38 113v375h157v-384q0 -143 -73.5 -217.5t-208.5 -74.5h-72v148h53z" />
    <glyph glyph-name="K" unicode="K" horiz-adv-x="715" 
d="M230 676v-258h52q37 0 59 9t42 34t49 78l75 137h172l-115 -202q-47 -80 -87 -120l231 -354h-182l-178 276q-16 -4 -39 -4h-79v-272h-153v676h153z" />
    <glyph glyph-name="L" unicode="L" horiz-adv-x="582" 
d="M77 676h156v-527h310v-149h-466v676z" />
    <glyph glyph-name="M" unicode="M" horiz-adv-x="881" 
d="M77 676h141l220 -407l227 407h139v-676h-152v403l-153 -281h-124l-150 279v-401h-148v676z" />
    <glyph glyph-name="N" unicode="N" horiz-adv-x="734" 
d="M77 676h129l298 -410v410h153v-676h-129l-298 411v-411h-153v676z" />
    <glyph glyph-name="Ntilde" unicode="&#xd1;" horiz-adv-x="734" 
d="M77 676h129l298 -410v410h153v-676h-129l-298 411v-411h-153v676zM410 743.5q-19 6.5 -43 19.5q-25 14 -40.5 20.5t-35.5 6.5q-27 0 -50.5 -9t-52.5 -27v103q27 18 51.5 27.5t52.5 9.5q26 0 46 -6.5t43 -19.5q5 -2 21 -10.5t29 -12t26 -3.5q31 0 54 9.5t51 27.5v-104
q-26 -18 -51 -28t-57 -10q-25 0 -44 6.5z" />
    <glyph glyph-name="O" unicode="O" horiz-adv-x="767" 
d="M212.5 32q-75.5 44 -118.5 123.5t-43 182.5q0 100 43.5 180t119 125t169.5 45q95 0 171 -44.5t119.5 -124.5t43.5 -181t-43.5 -181t-120 -124.5t-170.5 -44.5q-95 0 -170.5 44zM510 187q48 57 48 151q0 93 -47 150.5t-127 57.5t-127 -57.5t-47 -150.5t47 -150.5
t126 -57.5t127 57z" />
    <glyph glyph-name="Oacute" unicode="&#xd3;" horiz-adv-x="767" 
d="M212.5 32q-75.5 44 -118.5 123.5t-43 182.5q0 100 43.5 180t119 125t169.5 45q95 0 171 -44.5t119.5 -124.5t43.5 -181t-43.5 -181t-120 -124.5t-170.5 -44.5q-95 0 -170.5 44zM510 187q48 57 48 151q0 93 -47 150.5t-127 57.5t-127 -57.5t-47 -150.5t47 -150.5
t126 -57.5t127 57zM418 889h161l-156 -147h-145z" />
    <glyph glyph-name="Ocircumflex" unicode="&#xd4;" horiz-adv-x="767" 
d="M212.5 32q-75.5 44 -118.5 123.5t-43 182.5q0 100 43.5 180t119 125t169.5 45q95 0 171 -44.5t119.5 -124.5t43.5 -181t-43.5 -181t-120 -124.5t-170.5 -44.5q-95 0 -170.5 44zM510 187q48 57 48 151q0 93 -47 150.5t-127 57.5t-127 -57.5t-47 -150.5t47 -150.5
t126 -57.5t127 57zM315 889h137l136 -147h-134l-70 71l-72 -71h-134z" />
    <glyph glyph-name="Odieresis" unicode="&#xd6;" horiz-adv-x="767" 
d="M212.5 32q-75.5 44 -118.5 123.5t-43 182.5q0 100 43.5 180t119 125t169.5 45q95 0 171 -44.5t119.5 -124.5t43.5 -181t-43.5 -181t-120 -124.5t-170.5 -44.5q-95 0 -170.5 44zM510 187q48 57 48 151q0 93 -47 150.5t-127 57.5t-127 -57.5t-47 -150.5t47 -150.5
t126 -57.5t127 57zM213.5 755q-23.5 21 -23.5 54t23 54t58 21q36 0 59.5 -21t23.5 -54t-23.5 -54t-59.5 -21q-34 0 -57.5 21zM437.5 755q-23.5 21 -23.5 54t23.5 54t59.5 21q35 0 58 -21t23 -54t-23 -54t-58 -21q-36 0 -59.5 21z" />
    <glyph glyph-name="Ograve" unicode="&#xd2;" horiz-adv-x="767" 
d="M212.5 32q-75.5 44 -118.5 123.5t-43 182.5q0 100 43.5 180t119 125t169.5 45q95 0 171 -44.5t119.5 -124.5t43.5 -181t-43.5 -181t-120 -124.5t-170.5 -44.5q-95 0 -170.5 44zM510 187q48 57 48 151q0 93 -47 150.5t-127 57.5t-127 -57.5t-47 -150.5t47 -150.5
t126 -57.5t127 57zM189 889h161l140 -147h-145z" />
    <glyph glyph-name="Oslash" unicode="&#xd8;" horiz-adv-x="767" 
d="M74.5 198q-23.5 64 -23.5 140q0 100 43.5 180t119 125t169.5 45q75 0 142 -32l51 75h150l-99 -147q43 -46 66.5 -109t23.5 -137q0 -101 -43.5 -181t-120 -124.5t-170.5 -44.5q-76 0 -138 30l-50 -74h-151l97 145q-43 45 -66.5 109zM384 546q-80 0 -127 -57.5t-47 -150.5
q0 -60 24 -110l209 305q-28 13 -59 13zM510 187q48 57 48 151q0 61 -23 107l-207 -302q23 -13 55 -13q79 0 127 57z" />
    <glyph glyph-name="Otilde" unicode="&#xd5;" horiz-adv-x="767" 
d="M212.5 32q-75.5 44 -118.5 123.5t-43 182.5q0 100 43.5 180t119 125t169.5 45q95 0 171 -44.5t119.5 -124.5t43.5 -181t-43.5 -181t-120 -124.5t-170.5 -44.5q-95 0 -170.5 44zM510 187q48 57 48 151q0 93 -47 150.5t-127 57.5t-127 -57.5t-47 -150.5t47 -150.5
t126 -57.5t127 57zM427 743.5q-19 6.5 -43 19.5q-25 14 -40.5 20.5t-35.5 6.5q-27 0 -50.5 -9t-52.5 -27v103q27 18 51.5 27.5t52.5 9.5q26 0 46 -6.5t43 -19.5q5 -2 21 -10.5t29 -12t26 -3.5q31 0 54 9.5t51 27.5v-104q-26 -18 -51 -28t-57 -10q-25 0 -44 6.5z" />
    <glyph glyph-name="OE" unicode="&#x152;" horiz-adv-x="1084" 
d="M210 32q-74 44 -116.5 124t-42.5 182q0 100 43 180t117.5 125t164.5 45q52 0 98.5 -20t83.5 -57v65h470v-138h-319v-127h279v-136h-279v-135h328v-140h-479v66q-37 -37 -84 -57.5t-98 -20.5q-92 0 -166 44zM510 187.5q48 57.5 48 151.5q0 92 -47.5 149.5t-126.5 57.5
q-80 0 -127 -57.5t-47 -149.5q0 -93 46.5 -151t126.5 -58q79 0 127 57.5z" />
    <glyph glyph-name="P" unicode="P" horiz-adv-x="645" 
d="M352 676q76 0 133.5 -28t88.5 -79.5t31 -120.5t-31.5 -121t-88.5 -80t-133 -28h-118v-219h-157v676h275zM416.5 374.5q30.5 25.5 30.5 73.5q0 47 -30.5 73.5t-89.5 26.5h-93v-199h93q59 0 89.5 25.5z" />
    <glyph glyph-name="Thorn" unicode="&#xde;" horiz-adv-x="642" 
d="M234 676v-81h118q76 0 133.5 -28.5t88.5 -80.5t31 -121q0 -68 -31.5 -120t-88.5 -80.5t-133 -28.5h-118v-136h-157v676h157zM416.5 292.5q30.5 25.5 30.5 72.5q0 48 -31 75t-89 27h-93v-200h93q59 0 89.5 25.5z" />
    <glyph glyph-name="Q" unicode="Q" horiz-adv-x="768" 
d="M383 -12q-95 0 -170.5 44t-118.5 124t-43 183q0 100 43.5 179.5t119 124.5t169.5 45q95 0 171.5 -44.5t120 -124t43.5 -180.5q0 -73 -23.5 -136t-66.5 -111l75 -102l-112 -77l-75 101q-61 -26 -133 -26zM430 132l-74 99l113 76l67 -90q26 49 26 118q0 94 -47.5 153
t-128.5 59q-83 0 -130.5 -58.5t-47.5 -153.5q0 -60 22 -107.5t62.5 -75t92.5 -27.5q21 0 45 7z" />
    <glyph glyph-name="R" unicode="R" horiz-adv-x="658" 
d="M344 676q76 0 133.5 -26.5t88.5 -75t31 -111.5q0 -57 -30 -102t-83 -69q43 -33 78 -104l88 -188h-168l-54 116q-21 45 -38 69t-41.5 36t-63.5 12h-57v-233h-151v676h267zM411.5 384.5q30.5 24.5 30.5 71.5q0 48 -30 72.5t-90 24.5h-94v-193h94q59 0 89.5 24.5z" />
    <glyph glyph-name="S" unicode="S" horiz-adv-x="630" 
d="M153.5 15.5q-72.5 27.5 -132.5 80.5l81 109q44 -37 100 -58t118 -21q52 0 79 16.5t27 48.5q0 36 -30 52t-106 33q-86 17 -137 41.5t-76 65t-25 106.5q0 57 32 102t91 71t136 26q80 0 144.5 -26.5t117.5 -82.5l-89 -95q-35 34 -81 51t-93 17q-51 0 -77 -16t-26 -45
q0 -23 13 -37t42 -23.5t87 -22.5q122 -26 178 -76t56 -136q0 -95 -69.5 -151.5t-195.5 -56.5q-92 0 -164.5 27.5z" />
    <glyph glyph-name="Scaron" unicode="&#x160;" horiz-adv-x="630" 
d="M153.5 15.5q-72.5 27.5 -132.5 80.5l81 109q44 -37 100 -58t118 -21q52 0 79 16.5t27 48.5q0 36 -30 52t-106 33q-86 17 -137 41.5t-76 65t-25 106.5q0 57 32 102t91 71t136 26q80 0 144.5 -26.5t117.5 -82.5l-89 -95q-35 34 -81 51t-93 17q-51 0 -77 -16t-26 -45
q0 -23 13 -37t42 -23.5t87 -22.5q122 -26 178 -76t56 -136q0 -95 -69.5 -151.5t-195.5 -56.5q-92 0 -164.5 27.5zM109 889h135l70 -72l72 72h133l-137 -147h-136z" />
    <glyph glyph-name="uni1E9E" unicode="&#x1e9e;" horiz-adv-x="709" 
d="M259 57l64 98q27 -22 54 -31.5t63 -9.5q45 0 69.5 21.5t24.5 60.5q0 40 -34 62.5t-100 22.5h-64v88l130 166q-37 25 -91 25q-72 0 -116.5 -53.5t-44.5 -143.5v-363h-147v369q0 95 38.5 167.5t107.5 112t160 39.5q154 0 269 -107l-156 -199l19 -3q77 -10 124 -61.5
t47 -122.5q0 -61 -27.5 -108t-78 -73t-117.5 -26q-116 0 -194 69z" />
    <glyph glyph-name="T" unicode="T" horiz-adv-x="630" 
d="M238 528h-201v148h556v-148h-201v-528h-154v528z" />
    <glyph glyph-name="U" unicode="U" horiz-adv-x="736" 
d="M149.5 73.5q-79.5 85.5 -79.5 246.5v356h156v-357q0 -94 36.5 -141.5t104.5 -47.5q69 0 106 48t37 141v357h156v-356q0 -102 -37 -177t-104.5 -115t-157.5 -40q-138 0 -217.5 85.5z" />
    <glyph glyph-name="Uacute" unicode="&#xda;" horiz-adv-x="736" 
d="M149.5 73.5q-79.5 85.5 -79.5 246.5v356h156v-357q0 -94 36.5 -141.5t104.5 -47.5q69 0 106 48t37 141v357h156v-356q0 -102 -37 -177t-104.5 -115t-157.5 -40q-138 0 -217.5 85.5zM402 889h161l-156 -147h-145z" />
    <glyph glyph-name="Ucircumflex" unicode="&#xdb;" horiz-adv-x="736" 
d="M149.5 73.5q-79.5 85.5 -79.5 246.5v356h156v-357q0 -94 36.5 -141.5t104.5 -47.5q69 0 106 48t37 141v357h156v-356q0 -102 -37 -177t-104.5 -115t-157.5 -40q-138 0 -217.5 85.5zM299 889h137l136 -147h-134l-70 71l-72 -71h-134z" />
    <glyph glyph-name="Udieresis" unicode="&#xdc;" horiz-adv-x="736" 
d="M149.5 73.5q-79.5 85.5 -79.5 246.5v356h156v-357q0 -94 36.5 -141.5t104.5 -47.5q69 0 106 48t37 141v357h156v-356q0 -102 -37 -177t-104.5 -115t-157.5 -40q-138 0 -217.5 85.5zM197.5 755q-23.5 21 -23.5 54t23 54t58 21q36 0 59.5 -21t23.5 -54t-23.5 -54t-59.5 -21
q-34 0 -57.5 21zM421.5 755q-23.5 21 -23.5 54t23.5 54t59.5 21q35 0 58 -21t23 -54t-23 -54t-58 -21q-36 0 -59.5 21z" />
    <glyph glyph-name="Ugrave" unicode="&#xd9;" horiz-adv-x="736" 
d="M149.5 73.5q-79.5 85.5 -79.5 246.5v356h156v-357q0 -94 36.5 -141.5t104.5 -47.5q69 0 106 48t37 141v357h156v-356q0 -102 -37 -177t-104.5 -115t-157.5 -40q-138 0 -217.5 85.5zM173 889h161l140 -147h-145z" />
    <glyph glyph-name="V" unicode="V" horiz-adv-x="719" 
d="M16 676h177l169 -491l167 491h174l-258 -676h-172z" />
    <glyph glyph-name="W" unicode="W" horiz-adv-x="1015" 
d="M25 676h171l105 -478l128 432h165l122 -432l109 478h165l-191 -676h-166l-129 429l-128 -429h-164z" />
    <glyph glyph-name="Wacute" unicode="&#x1e82;" horiz-adv-x="1015" 
d="M25 676h171l105 -478l128 432h165l122 -432l109 478h165l-191 -676h-166l-129 429l-128 -429h-164zM541 889h161l-156 -147h-145z" />
    <glyph glyph-name="Wcircumflex" unicode="&#x174;" horiz-adv-x="1015" 
d="M25 676h171l105 -478l128 432h165l122 -432l109 478h165l-191 -676h-166l-129 429l-128 -429h-164zM439 889h137l136 -147h-134l-70 71l-72 -71h-134z" />
    <glyph glyph-name="Wdieresis" unicode="&#x1e84;" horiz-adv-x="1015" 
d="M25 676h171l105 -478l128 432h165l122 -432l109 478h165l-191 -676h-166l-129 429l-128 -429h-164zM337.5 755q-23.5 21 -23.5 54t23 54t58 21q36 0 59.5 -21t23.5 -54t-23.5 -54t-59.5 -21q-34 0 -57.5 21zM561.5 755q-23.5 21 -23.5 54t23.5 54t59.5 21q35 0 58 -21
t23 -54t-23 -54t-58 -21q-36 0 -59.5 21z" />
    <glyph glyph-name="Wgrave" unicode="&#x1e80;" horiz-adv-x="1015" 
d="M25 676h171l105 -478l128 432h165l122 -432l109 478h165l-191 -676h-166l-129 429l-128 -429h-164zM313 889h161l140 -147h-145z" />
    <glyph glyph-name="X" unicode="X" horiz-adv-x="716" 
d="M263 352l-231 324h188l144 -210l136 210h181l-227 -324l246 -352h-186l-161 240l-156 -240h-181z" />
    <glyph glyph-name="Y" unicode="Y" horiz-adv-x="672" 
d="M259 248l-244 428h178l146 -278l146 278h172l-242 -425v-251h-156v248z" />
    <glyph glyph-name="Yacute" unicode="&#xdd;" horiz-adv-x="672" 
d="M259 248l-244 428h178l146 -278l146 278h172l-242 -425v-251h-156v248zM370 889h161l-156 -147h-145z" />
    <glyph glyph-name="Ycircumflex" unicode="&#x176;" horiz-adv-x="672" 
d="M259 248l-244 428h178l146 -278l146 278h172l-242 -425v-251h-156v248zM267 889h137l136 -147h-134l-70 71l-72 -71h-134z" />
    <glyph glyph-name="Ydieresis" unicode="&#x178;" horiz-adv-x="672" 
d="M259 248l-244 428h178l146 -278l146 278h172l-242 -425v-251h-156v248zM165.5 755q-23.5 21 -23.5 54t23 54t58 21q36 0 59.5 -21t23.5 -54t-23.5 -54t-59.5 -21q-34 0 -57.5 21zM389.5 755q-23.5 21 -23.5 54t23.5 54t59.5 21q35 0 58 -21t23 -54t-23 -54t-58 -21
q-36 0 -59.5 21z" />
    <glyph glyph-name="Ygrave" unicode="&#x1ef2;" horiz-adv-x="672" 
d="M259 248l-244 428h178l146 -278l146 278h172l-242 -425v-251h-156v248zM142 889h161l140 -147h-145z" />
    <glyph glyph-name="Z" unicode="Z" horiz-adv-x="631" 
d="M45 122l336 412h-325v142h518v-121l-335 -412h345v-143h-539v122z" />
    <glyph glyph-name="Zcaron" unicode="&#x17d;" horiz-adv-x="631" 
d="M45 122l336 412h-325v142h518v-121l-335 -412h345v-143h-539v122zM111 889h135l70 -72l72 72h133l-137 -147h-136z" />
    <glyph glyph-name="a" unicode="a" horiz-adv-x="565" 
d="M87 29.5q-47 41.5 -47 115.5q0 75 58.5 118t165.5 43h106q-1 111 -102 111q-38 0 -73.5 -13t-64.5 -38l-73 86q44 40 100.5 62.5t115.5 22.5q115 0 174.5 -62t59.5 -180v-295h-104l-19 60q-36 -34 -79 -53t-89 -19q-82 0 -129 41.5zM370 159v51h-111q-41 0 -64.5 -15.5
t-23.5 -42.5q0 -23 19.5 -38.5t49.5 -15.5q74 0 130 61z" />
    <glyph glyph-name="aacute" unicode="&#xe1;" horiz-adv-x="565" 
d="M87 29.5q-47 41.5 -47 115.5q0 75 58.5 118t165.5 43h106q-1 111 -102 111q-38 0 -73.5 -13t-64.5 -38l-73 86q44 40 100.5 62.5t115.5 22.5q115 0 174.5 -62t59.5 -180v-295h-104l-19 60q-36 -34 -79 -53t-89 -19q-82 0 -129 41.5zM370 159v51h-111q-41 0 -64.5 -15.5
t-23.5 -42.5q0 -23 19.5 -38.5t49.5 -15.5q74 0 130 61zM312 749h154l-146 -148h-139z" />
    <glyph glyph-name="acircumflex" unicode="&#xe2;" horiz-adv-x="565" 
d="M87 29.5q-47 41.5 -47 115.5q0 75 58.5 118t165.5 43h106q-1 111 -102 111q-38 0 -73.5 -13t-64.5 -38l-73 86q44 40 100.5 62.5t115.5 22.5q115 0 174.5 -62t59.5 -180v-295h-104l-19 60q-36 -34 -79 -53t-89 -19q-82 0 -129 41.5zM370 159v51h-111q-41 0 -64.5 -15.5
t-23.5 -42.5q0 -23 19.5 -38.5t49.5 -15.5q74 0 130 61zM217 749h131l130 -148h-126l-70 73l-70 -73h-126z" />
    <glyph glyph-name="adieresis" unicode="&#xe4;" horiz-adv-x="565" 
d="M87 29.5q-47 41.5 -47 115.5q0 75 58.5 118t165.5 43h106q-1 111 -102 111q-38 0 -73.5 -13t-64.5 -38l-73 86q44 40 100.5 62.5t115.5 22.5q115 0 174.5 -62t59.5 -180v-295h-104l-19 60q-36 -34 -79 -53t-89 -19q-82 0 -129 41.5zM370 159v51h-111q-41 0 -64.5 -15.5
t-23.5 -42.5q0 -23 19.5 -38.5t49.5 -15.5q74 0 130 61zM114 617.5q-23 20.5 -23 53.5t23 53.5t58 20.5t58 -20.5t23 -53.5t-23 -53.5t-58 -20.5t-58 20.5zM334.5 617.5q-22.5 20.5 -22.5 53.5t22.5 53.5t57.5 20.5t58 -20.5t23 -53.5t-23 -53.5t-58 -20.5t-57.5 20.5z" />
    <glyph glyph-name="agrave" unicode="&#xe0;" horiz-adv-x="565" 
d="M87 29.5q-47 41.5 -47 115.5q0 75 58.5 118t165.5 43h106q-1 111 -102 111q-38 0 -73.5 -13t-64.5 -38l-73 86q44 40 100.5 62.5t115.5 22.5q115 0 174.5 -62t59.5 -180v-295h-104l-19 60q-36 -34 -79 -53t-89 -19q-82 0 -129 41.5zM370 159v51h-111q-41 0 -64.5 -15.5
t-23.5 -42.5q0 -23 19.5 -38.5t49.5 -15.5q74 0 130 61zM99 749h153l132 -148h-139z" />
    <glyph glyph-name="aring" unicode="&#xe5;" horiz-adv-x="565" 
d="M87 29.5q-47 41.5 -47 115.5q0 75 58.5 118t165.5 43h106q-1 111 -102 111q-38 0 -73.5 -13t-64.5 -38l-73 86q44 40 100.5 62.5t115.5 22.5q115 0 174.5 -62t59.5 -180v-295h-104l-19 60q-36 -34 -79 -53t-89 -19q-82 0 -129 41.5zM370 159v51h-111q-41 0 -64.5 -15.5
t-23.5 -42.5q0 -23 19.5 -38.5t49.5 -15.5q74 0 130 61zM215 609q-30 17 -47.5 46.5t-17.5 64.5q0 54 38.5 91t92.5 37q35 0 65 -17t47.5 -46t17.5 -65t-17.5 -65t-47.5 -46t-65 -17q-36 0 -66 17zM318 681q15 16 15 39t-15 38t-37 15q-23 0 -37.5 -15t-14.5 -38t15 -39
t37 -16t37 16z" />
    <glyph glyph-name="atilde" unicode="&#xe3;" horiz-adv-x="565" 
d="M87 29.5q-47 41.5 -47 115.5q0 75 58.5 118t165.5 43h106q-1 111 -102 111q-38 0 -73.5 -13t-64.5 -38l-73 86q44 40 100.5 62.5t115.5 22.5q115 0 174.5 -62t59.5 -180v-295h-104l-19 60q-36 -34 -79 -53t-89 -19q-82 0 -129 41.5zM370 159v51h-111q-41 0 -64.5 -15.5
t-23.5 -42.5q0 -23 19.5 -38.5t49.5 -15.5q74 0 130 61zM325 602.5q-18 6.5 -41 19.5q-22 14 -38.5 21t-34.5 7q-25 0 -47.5 -9t-48.5 -27v98q26 19 48.5 29t48.5 10q24 0 42 -6.5t42 -20.5q28 -15 42 -21t31 -6q29 0 50.5 9.5t47.5 27.5v-100q-27 -18 -49.5 -28t-51.5 -10
q-23 0 -41 6.5z" />
    <glyph glyph-name="ae" unicode="&#xe6;" horiz-adv-x="914" 
d="M89 29.5q-49 41.5 -49 115.5q0 76 59 120.5t166 44.5h106q-1 55 -26.5 81t-76.5 26q-78 0 -137 -51l-74 86q44 41 99.5 63t115.5 22q118 0 170 -90q35 41 83.5 65.5t103.5 24.5q75 0 130 -34t84.5 -97t29.5 -147v-37h-364q9 -52 46.5 -83t94.5 -31q74 0 122 50l83 -78
q-41 -45 -96 -68.5t-119 -23.5q-69 0 -122.5 24t-87.5 69q-40 -43 -92.5 -68t-113.5 -25q-86 0 -135 41.5zM702.5 395q-27.5 28 -76.5 28q-46 0 -75.5 -27.5t-39.5 -76.5h222q-3 48 -30.5 76zM385 172q-2 6 -9 42h-117q-41 0 -64.5 -16.5t-23.5 -45.5q0 -25 19.5 -40
t50.5 -15q77 0 144 75z" />
    <glyph glyph-name="b" unicode="b" horiz-adv-x="644" 
d="M192 50l-16 -50h-110v723l151 22v-270q32 29 72 45.5t81 16.5q67 0 119 -33.5t81.5 -95t29.5 -143.5q0 -79 -33.5 -141.5t-90.5 -98t-124 -35.5q-90 0 -160 60zM415.5 157q36.5 38 36.5 110q0 64 -31.5 100.5t-87.5 36.5q-69 0 -116 -62v-188q45 -35 100 -35
q62 0 98.5 38z" />
    <glyph glyph-name="c" unicode="c" horiz-adv-x="538" 
d="M171.5 21q-60.5 33 -93.5 95.5t-33 147.5q0 77 34.5 139t96 98t137.5 36q59 0 110 -24t83 -64l-84 -90q-22 23 -46.5 35.5t-56.5 12.5q-57 0 -91.5 -39.5t-34.5 -103.5q0 -65 35 -105.5t90 -40.5q61 0 111 50l83 -91q-37 -42 -88.5 -65.5t-112.5 -23.5q-79 0 -139.5 33z
" />
    <glyph glyph-name="ccedilla" unicode="&#xe7;" horiz-adv-x="538" 
d="M360 -8q26 -32 26 -73q0 -57 -44 -89t-119 -32h-35v95h31q28 0 43.5 11t15.5 32q0 17 -5.5 28.5t-18.5 28.5q-97 17 -153 88t-56 183q0 77 34.5 139t96 98t137.5 36q59 0 110 -24t83 -64l-84 -90q-22 23 -46.5 35.5t-56.5 12.5q-57 0 -91.5 -39.5t-34.5 -103.5
q0 -65 35 -105.5t90 -40.5q61 0 111 50l83 -91q-61 -69 -152 -85z" />
    <glyph glyph-name="d" unicode="d" horiz-adv-x="644" 
d="M155 21.5q-52 33.5 -81 95.5t-29 145q0 80 34 142t92.5 96.5t129.5 34.5q32 0 65.5 -10t61.5 -28v226l150 22v-745h-109l-22 66q-35 -37 -80 -57.5t-93 -20.5q-67 0 -119 33.5zM376.5 137.5q29.5 16.5 51.5 45.5v191q-47 34 -102 34q-61 0 -97 -39t-36 -111
q0 -65 31.5 -101t87.5 -36q35 0 64.5 16.5z" />
    <glyph glyph-name="eth" unicode="&#xf0;" horiz-adv-x="618" 
d="M171 21q-61 33 -95 92.5t-34 137.5q0 69 30 124t84.5 87t123.5 32q64 0 122 -32q-23 56 -64 108l-151 -38v85l87 23q-32 30 -84 67l153 37q45 -32 78 -68l124 32v-86l-67 -17q99 -143 99 -324q0 -89 -32 -155t-92.5 -102t-143.5 -36q-77 0 -138 33zM404.5 161.5
q32.5 45.5 32.5 120.5q0 34 -4 59q-24 21 -54.5 33t-60.5 12q-60 0 -95 -36.5t-35 -98.5q0 -60 33 -97.5t87 -37.5q64 0 96.5 45.5z" />
    <glyph glyph-name="e" unicode="e" horiz-adv-x="590" 
d="M172 23q-61 35 -94 98t-33 145q0 77 34 139t93.5 97t133.5 35t129 -34t84.5 -96.5t29.5 -145.5v-38h-367q9 -53 47.5 -83.5t95.5 -30.5q76 0 123 49l83 -78q-86 -92 -215 -92q-83 0 -144 35zM379 396.5q-27 26.5 -76 26.5q-46 0 -76.5 -27t-41.5 -75h224q-3 49 -30 75.5z
" />
    <glyph glyph-name="eacute" unicode="&#xe9;" horiz-adv-x="590" 
d="M172 23q-61 35 -94 98t-33 145q0 77 34 139t93.5 97t133.5 35t129 -34t84.5 -96.5t29.5 -145.5v-38h-367q9 -53 47.5 -83.5t95.5 -30.5q76 0 123 49l83 -78q-86 -92 -215 -92q-83 0 -144 35zM379 396.5q-27 26.5 -76 26.5q-46 0 -76.5 -27t-41.5 -75h224q-3 49 -30 75.5z
M333 749h154l-146 -148h-139z" />
    <glyph glyph-name="ecircumflex" unicode="&#xea;" horiz-adv-x="590" 
d="M172 23q-61 35 -94 98t-33 145q0 77 34 139t93.5 97t133.5 35t129 -34t84.5 -96.5t29.5 -145.5v-38h-367q9 -53 47.5 -83.5t95.5 -30.5q76 0 123 49l83 -78q-86 -92 -215 -92q-83 0 -144 35zM379 396.5q-27 26.5 -76 26.5q-46 0 -76.5 -27t-41.5 -75h224q-3 49 -30 75.5z
M238 749h131l130 -148h-126l-70 73l-70 -73h-126z" />
    <glyph glyph-name="edieresis" unicode="&#xeb;" horiz-adv-x="590" 
d="M172 23q-61 35 -94 98t-33 145q0 77 34 139t93.5 97t133.5 35t129 -34t84.5 -96.5t29.5 -145.5v-38h-367q9 -53 47.5 -83.5t95.5 -30.5q76 0 123 49l83 -78q-86 -92 -215 -92q-83 0 -144 35zM379 396.5q-27 26.5 -76 26.5q-46 0 -76.5 -27t-41.5 -75h224q-3 49 -30 75.5z
M135 617.5q-23 20.5 -23 53.5t23 53.5t58 20.5t58 -20.5t23 -53.5t-23 -53.5t-58 -20.5t-58 20.5zM355.5 617.5q-22.5 20.5 -22.5 53.5t22.5 53.5t57.5 20.5t58 -20.5t23 -53.5t-23 -53.5t-58 -20.5t-57.5 20.5z" />
    <glyph glyph-name="egrave" unicode="&#xe8;" horiz-adv-x="590" 
d="M172 23q-61 35 -94 98t-33 145q0 77 34 139t93.5 97t133.5 35t129 -34t84.5 -96.5t29.5 -145.5v-38h-367q9 -53 47.5 -83.5t95.5 -30.5q76 0 123 49l83 -78q-86 -92 -215 -92q-83 0 -144 35zM379 396.5q-27 26.5 -76 26.5q-46 0 -76.5 -27t-41.5 -75h224q-3 49 -30 75.5z
M120 749h153l132 -148h-139z" />
    <glyph glyph-name="f" unicode="f" horiz-adv-x="454" 
d="M94 639.5q28 52.5 79 80.5t119 28q48 0 90 -16t74 -44l-63 -90q-35 29 -82 29q-44 0 -69 -25t-25 -71v-6h201v-125h-201v-400h-151v517q0 70 28 122.5z" />
    <glyph glyph-name="g" unicode="g" horiz-adv-x="638" 
d="M148.5 -201q-62.5 24 -100.5 66l75 93q63 -58 159 -58q61 0 100.5 39t39.5 105v35q-66 -58 -150 -58q-67 0 -119 30t-81.5 86.5t-29.5 132.5q0 79 34 140t92.5 94t129.5 33q40 0 79.5 -15t70.5 -41l14 44h110v-482q0 -78 -35.5 -139t-100 -95t-147.5 -34q-78 0 -140.5 24
zM370 158.5q29 16.5 52 43.5v177q-43 34 -99 34q-61 0 -97.5 -36t-36.5 -106q0 -60 32 -94.5t87 -34.5q33 0 62 16.5z" />
    <glyph glyph-name="h" unicode="h" horiz-adv-x="630" 
d="M217 745v-271q68 63 157 63q94 0 146 -63t52 -176v-298h-151v280q0 64 -21.5 94t-72.5 30q-31 0 -60 -17.5t-50 -48.5v-338h-151v723z" />
    <glyph glyph-name="i" unicode="i" horiz-adv-x="284" 
d="M67 525h150v-525h-150v525zM79 616.5q-25 22.5 -25 58.5q0 35 25 57.5t63 22.5t63.5 -22.5t25.5 -57.5q0 -36 -25 -58.5t-64 -22.5q-38 0 -63 22.5z" />
    <glyph glyph-name="dotlessi" unicode="&#x131;" horiz-adv-x="284" 
d="M67 525h150v-525h-150v525z" />
    <glyph glyph-name="iacute" unicode="&#xed;" horiz-adv-x="284" 
d="M67 525h150v-525h-150v525zM173 749h151l-122 -148h-136z" />
    <glyph glyph-name="icircumflex" unicode="&#xee;" horiz-adv-x="284" 
d="M67 525h150v-525h-150v525zM77 749h131l130 -148h-126l-70 73l-70 -73h-126z" />
    <glyph glyph-name="idieresis" unicode="&#xef;" horiz-adv-x="284" 
d="M67 525h150v-525h-150v525zM-26 617.5q-23 20.5 -23 53.5t23 53.5t58 20.5t58 -20.5t23 -53.5t-23 -53.5t-58 -20.5t-58 20.5zM194.5 617.5q-22.5 20.5 -22.5 53.5t22.5 53.5t57.5 20.5t58 -20.5t23 -53.5t-23 -53.5t-58 -20.5t-57.5 20.5z" />
    <glyph glyph-name="igrave" unicode="&#xec;" horiz-adv-x="284" 
d="M67 525h150v-525h-150v525zM-40 749h151l107 -148h-136z" />
    <glyph glyph-name="j" unicode="j" horiz-adv-x="284" 
d="M-18 -84q39 0 62 23.5t23 65.5v520h150v-515q0 -105 -52.5 -159.5t-151.5 -54.5h-48v120h17zM79 616.5q-25 22.5 -25 58.5q0 35 25 57.5t63 22.5t63.5 -22.5t25.5 -57.5q0 -36 -25 -58.5t-64 -22.5q-38 0 -63 22.5z" />
    <glyph glyph-name="uni0237" unicode="&#x237;" horiz-adv-x="284" 
d="M-18 -84q39 0 62 23.5t23 65.5v520h150v-515q0 -105 -52.5 -159.5t-151.5 -54.5h-48v120h17z" />
    <glyph glyph-name="k" unicode="k" horiz-adv-x="631" 
d="M214 745v-417h31q28 0 44.5 5.5t35.5 26.5t45 67l55 98h165l-93 -155q-36 -59 -71 -94l187 -276h-173l-135 204q-15 -3 -30 -3h-61v-201h-148v723z" />
    <glyph glyph-name="l" unicode="l" horiz-adv-x="332" 
d="M111 47.5q-51 55.5 -51 160.5v515l151 22v-537q0 -43 21 -67t60 -24h15v-125h-48q-97 0 -148 55.5z" />
    <glyph glyph-name="m" unicode="m" horiz-adv-x="934" 
d="M177 525l21 -66q71 78 162 78q107 0 153 -86q36 41 80.5 63.5t96.5 22.5q88 0 136.5 -61t48.5 -171v-305h-150v288q0 56 -18.5 86t-64.5 30q-27 0 -53 -16t-45 -45q1 -12 1 -38v-305h-149v288q0 56 -18.5 86t-64.5 30q-29 0 -54 -17.5t-44 -49.5v-337h-149v525h111z" />
    <glyph glyph-name="n" unicode="n" horiz-adv-x="630" 
d="M177 525l21 -68q75 80 176 80q94 0 146 -63t52 -176v-298h-151v280q0 64 -21.5 94t-72.5 30q-31 0 -60 -17.5t-50 -48.5v-338h-151v525h111z" />
    <glyph glyph-name="ntilde" unicode="&#xf1;" horiz-adv-x="630" 
d="M177 525l21 -68q75 80 176 80q94 0 146 -63t52 -176v-298h-151v280q0 64 -21.5 94t-72.5 30q-31 0 -60 -17.5t-50 -48.5v-338h-151v525h111zM365 602.5q-18 6.5 -41 19.5q-22 14 -38.5 21t-34.5 7q-25 0 -47.5 -9t-48.5 -27v98q26 19 48.5 29t48.5 10q24 0 42 -6.5
t42 -20.5q28 -15 42 -21t31 -6q29 0 50.5 9.5t47.5 27.5v-100q-27 -18 -49.5 -28t-51.5 -10q-23 0 -41 6.5z" />
    <glyph glyph-name="o" unicode="o" horiz-adv-x="634" 
d="M176.5 22.5q-61.5 34.5 -96.5 97t-35 144.5q0 79 35.5 141t97 97t138.5 35q78 0 140 -34.5t97.5 -97t35.5 -142.5t-35.5 -143t-98 -97.5t-139.5 -34.5q-78 0 -139.5 34.5zM407 157.5q34 39.5 34 105.5q0 65 -33.5 104.5t-90.5 39.5t-90.5 -39t-33.5 -104q0 -67 33 -106.5
t89 -39.5q58 0 92 39.5z" />
    <glyph glyph-name="oacute" unicode="&#xf3;" horiz-adv-x="634" 
d="M176.5 22.5q-61.5 34.5 -96.5 97t-35 144.5q0 79 35.5 141t97 97t138.5 35q78 0 140 -34.5t97.5 -97t35.5 -142.5t-35.5 -143t-98 -97.5t-139.5 -34.5q-78 0 -139.5 34.5zM407 157.5q34 39.5 34 105.5q0 65 -33.5 104.5t-90.5 39.5t-90.5 -39t-33.5 -104q0 -67 33 -106.5
t89 -39.5q58 0 92 39.5zM346 749h154l-146 -148h-139z" />
    <glyph glyph-name="ocircumflex" unicode="&#xf4;" horiz-adv-x="634" 
d="M176.5 22.5q-61.5 34.5 -96.5 97t-35 144.5q0 79 35.5 141t97 97t138.5 35q78 0 140 -34.5t97.5 -97t35.5 -142.5t-35.5 -143t-98 -97.5t-139.5 -34.5q-78 0 -139.5 34.5zM407 157.5q34 39.5 34 105.5q0 65 -33.5 104.5t-90.5 39.5t-90.5 -39t-33.5 -104q0 -67 33 -106.5
t89 -39.5q58 0 92 39.5zM251 749h131l130 -148h-126l-70 73l-70 -73h-126z" />
    <glyph glyph-name="odieresis" unicode="&#xf6;" horiz-adv-x="634" 
d="M176.5 22.5q-61.5 34.5 -96.5 97t-35 144.5q0 79 35.5 141t97 97t138.5 35q78 0 140 -34.5t97.5 -97t35.5 -142.5t-35.5 -143t-98 -97.5t-139.5 -34.5q-78 0 -139.5 34.5zM407 157.5q34 39.5 34 105.5q0 65 -33.5 104.5t-90.5 39.5t-90.5 -39t-33.5 -104q0 -67 33 -106.5
t89 -39.5q58 0 92 39.5zM148 617.5q-23 20.5 -23 53.5t23 53.5t58 20.5t58 -20.5t23 -53.5t-23 -53.5t-58 -20.5t-58 20.5zM368.5 617.5q-22.5 20.5 -22.5 53.5t22.5 53.5t57.5 20.5t58 -20.5t23 -53.5t-23 -53.5t-58 -20.5t-57.5 20.5z" />
    <glyph glyph-name="ograve" unicode="&#xf2;" horiz-adv-x="634" 
d="M176.5 22.5q-61.5 34.5 -96.5 97t-35 144.5q0 79 35.5 141t97 97t138.5 35q78 0 140 -34.5t97.5 -97t35.5 -142.5t-35.5 -143t-98 -97.5t-139.5 -34.5q-78 0 -139.5 34.5zM407 157.5q34 39.5 34 105.5q0 65 -33.5 104.5t-90.5 39.5t-90.5 -39t-33.5 -104q0 -67 33 -106.5
t89 -39.5q58 0 92 39.5zM134 749h153l132 -148h-139z" />
    <glyph glyph-name="oslash" unicode="&#xf8;" horiz-adv-x="634" 
d="M64 153.5q-19 50.5 -19 110.5q0 79 35.5 141t97 97t138.5 35q63 0 118 -25l44 62h117l-81 -115q36 -37 55.5 -87t19.5 -109q0 -80 -35.5 -143t-98 -97.5t-139.5 -34.5q-64 0 -119 25l-44 -62h-117l83 116q-36 36 -55 86.5zM317 407q-57 0 -90.5 -39t-33.5 -104
q0 -41 15 -71l147 206q-18 8 -38 8zM407 157.5q34 39.5 34 105.5q0 42 -16 71l-148 -208q18 -8 38 -8q58 0 92 39.5z" />
    <glyph glyph-name="otilde" unicode="&#xf5;" horiz-adv-x="634" 
d="M176.5 22.5q-61.5 34.5 -96.5 97t-35 144.5q0 79 35.5 141t97 97t138.5 35q78 0 140 -34.5t97.5 -97t35.5 -142.5t-35.5 -143t-98 -97.5t-139.5 -34.5q-78 0 -139.5 34.5zM407 157.5q34 39.5 34 105.5q0 65 -33.5 104.5t-90.5 39.5t-90.5 -39t-33.5 -104q0 -67 33 -106.5
t89 -39.5q58 0 92 39.5zM359 602.5q-18 6.5 -41 19.5q-22 14 -38.5 21t-34.5 7q-25 0 -47.5 -9t-48.5 -27v98q26 19 48.5 29t48.5 10q24 0 42 -6.5t42 -20.5q28 -15 42 -21t31 -6q29 0 50.5 9.5t47.5 27.5v-100q-27 -18 -49.5 -28t-51.5 -10q-23 0 -41 6.5z" />
    <glyph glyph-name="oe" unicode="&#x153;" horiz-adv-x="999" 
d="M176.5 22.5q-61.5 34.5 -96.5 97t-35 144.5q0 79 35.5 141t97 97t138.5 35q61 0 113.5 -27t87.5 -75q34 47 85 74.5t112 27.5q74 0 129.5 -34t85 -96.5t29.5 -145.5v-39h-367q8 -52 47.5 -82.5t95.5 -30.5q74 0 123 49l83 -78q-42 -45 -97 -68.5t-119 -23.5
q-68 0 -121 27t-87 75q-36 -48 -88 -75t-112 -27q-78 0 -139.5 34.5zM788 396.5q-27 26.5 -75 26.5t-79 -26.5t-41 -75.5h225q-3 49 -30 75.5zM407 158q34 39 34 105q0 65 -33.5 104.5t-90.5 39.5t-90.5 -39t-33.5 -104q0 -66 33 -105.5t89 -39.5q58 0 92 39z" />
    <glyph glyph-name="p" unicode="p" horiz-adv-x="644" 
d="M177 525l21 -67q35 37 80 58t92 21q67 0 119 -33.5t81.5 -95.5t29.5 -144q0 -80 -34 -142t-93 -96.5t-130 -34.5q-62 0 -126 38v-228l-151 -22v746h111zM415.5 156.5q36.5 38.5 36.5 110.5q0 64 -31.5 100.5t-87.5 36.5q-69 0 -116 -62v-190q45 -34 100 -34
q62 0 98.5 38.5z" />
    <glyph glyph-name="thorn" unicode="&#xfe;" horiz-adv-x="644" 
d="M217 745v-269q32 29 71.5 45t81.5 16q67 0 119 -33.5t81.5 -95t29.5 -143.5q0 -80 -34 -142t-93 -96.5t-130 -34.5q-33 0 -65.5 11.5t-60.5 31.5v-235l-151 -21v944zM415.5 157q36.5 38 36.5 110q0 64 -31.5 100.5t-87.5 36.5q-69 0 -116 -62v-188q45 -35 100 -35
q62 0 98.5 38z" />
    <glyph glyph-name="q" unicode="q" horiz-adv-x="644" 
d="M274 -11q-67 0 -119 33.5t-81 95.5t-29 145q0 80 34 142.5t92.5 97t129.5 34.5q40 0 80 -15.5t72 -41.5l15 45h110v-724l-150 -22v271q-71 -61 -154 -61zM376.5 138.5q29.5 16.5 51.5 45.5v191q-47 34 -102 34q-61 0 -97 -38.5t-36 -111.5q0 -65 31.5 -101t87.5 -36
q35 0 64.5 16.5z" />
    <glyph glyph-name="r" unicode="r" horiz-adv-x="443" 
d="M177 525l23 -71q77 80 194 80h13v-125h-19q-51 0 -97 -18.5t-74 -54.5v-336h-151v525h111z" />
    <glyph glyph-name="s" unicode="s" horiz-adv-x="518" 
d="M131.5 11q-62.5 22 -105.5 60l67 92q31 -27 77.5 -42t97.5 -15q41 0 59.5 10.5t18.5 32.5q0 23 -22.5 35.5t-78.5 22.5q-70 13 -111.5 32.5t-62 53t-20.5 86.5q0 46 26 82t73.5 56t109.5 20q66 0 122 -22t95 -61l-76 -83q-28 25 -65 38t-76 13q-73 0 -73 -41
q0 -15 8.5 -24.5t30.5 -16.5t66 -15q97 -19 143.5 -59.5t46.5 -112.5q0 -76 -56.5 -120t-159.5 -44q-72 0 -134.5 22z" />
    <glyph glyph-name="scaron" unicode="&#x161;" horiz-adv-x="518" 
d="M131.5 11q-62.5 22 -105.5 60l67 92q31 -27 77.5 -42t97.5 -15q41 0 59.5 10.5t18.5 32.5q0 23 -22.5 35.5t-78.5 22.5q-70 13 -111.5 32.5t-62 53t-20.5 86.5q0 46 26 82t73.5 56t109.5 20q66 0 122 -22t95 -61l-76 -83q-28 25 -65 38t-76 13q-73 0 -73 -41
q0 -15 8.5 -24.5t30.5 -16.5t66 -15q97 -19 143.5 -59.5t46.5 -112.5q0 -76 -56.5 -120t-159.5 -44q-72 0 -134.5 22zM65 749h127l69 -74l71 74h125l-130 -148h-131z" />
    <glyph glyph-name="germandbls" unicode="&#xdf;" horiz-adv-x="686" 
d="M350.5 1.5q-47.5 13.5 -84.5 39.5l51 100q49 -31 111 -31q37 0 58 16t21 43q0 25 -12 40t-26 22t-50 21q-39 16 -59.5 27.5t-35 33t-14.5 56.5q0 25 11.5 46t32.5 46q20 24 30.5 42t10.5 39q0 73 -80 73q-50 0 -75.5 -35t-25.5 -96v-484h-148v468q0 129 68.5 203
t188.5 74q70 0 119.5 -22.5t74.5 -59t25 -78.5q0 -34 -15 -61.5t-40 -54.5q-19 -20 -28 -34.5t-9 -30.5q0 -21 16 -33.5t50 -27.5q7 -4 16 -8t19 -10q46 -24 74.5 -60.5t28.5 -100.5q0 -51 -24 -91t-67 -62.5t-99 -22.5q-66 0 -113.5 13.5z" />
    <glyph glyph-name="t" unicode="t" horiz-adv-x="454" 
d="M122.5 47q-56.5 59 -56.5 163v443l151 21v-149h194v-125h-194v-189q0 -43 21 -67.5t58 -24.5q25 0 42.5 7t35.5 21l68 -93q-33 -32 -75 -49t-88 -17q-100 0 -156.5 59z" />
    <glyph glyph-name="u" unicode="u" horiz-adv-x="628" 
d="M110.5 50.5q-50.5 62.5 -50.5 175.5v299h150v-280q0 -65 20.5 -94.5t72.5 -29.5q31 0 59 17t49 48v339h151v-525h-111l-22 68q-74 -80 -173 -80q-95 0 -145.5 62.5z" />
    <glyph glyph-name="uacute" unicode="&#xfa;" horiz-adv-x="628" 
d="M110.5 50.5q-50.5 62.5 -50.5 175.5v299h150v-280q0 -65 20.5 -94.5t72.5 -29.5q31 0 59 17t49 48v339h151v-525h-111l-22 68q-74 -80 -173 -80q-95 0 -145.5 62.5zM343 749h154l-146 -148h-139z" />
    <glyph glyph-name="ucircumflex" unicode="&#xfb;" horiz-adv-x="628" 
d="M110.5 50.5q-50.5 62.5 -50.5 175.5v299h150v-280q0 -65 20.5 -94.5t72.5 -29.5q31 0 59 17t49 48v339h151v-525h-111l-22 68q-74 -80 -173 -80q-95 0 -145.5 62.5zM249 749h131l130 -148h-126l-70 73l-70 -73h-126z" />
    <glyph glyph-name="udieresis" unicode="&#xfc;" horiz-adv-x="628" 
d="M110.5 50.5q-50.5 62.5 -50.5 175.5v299h150v-280q0 -65 20.5 -94.5t72.5 -29.5q31 0 59 17t49 48v339h151v-525h-111l-22 68q-74 -80 -173 -80q-95 0 -145.5 62.5zM146 617.5q-23 20.5 -23 53.5t23 53.5t58 20.5t58 -20.5t23 -53.5t-23 -53.5t-58 -20.5t-58 20.5z
M366.5 617.5q-22.5 20.5 -22.5 53.5t22.5 53.5t57.5 20.5t58 -20.5t23 -53.5t-23 -53.5t-58 -20.5t-57.5 20.5z" />
    <glyph glyph-name="ugrave" unicode="&#xf9;" horiz-adv-x="628" 
d="M110.5 50.5q-50.5 62.5 -50.5 175.5v299h150v-280q0 -65 20.5 -94.5t72.5 -29.5q31 0 59 17t49 48v339h151v-525h-111l-22 68q-74 -80 -173 -80q-95 0 -145.5 62.5zM131 749h153l132 -148h-139z" />
    <glyph glyph-name="v" unicode="v" horiz-adv-x="618" 
d="M12 525h166l132 -371l132 371h164l-216 -525h-164z" />
    <glyph glyph-name="w" unicode="w" horiz-adv-x="853" 
d="M18 525h158l78 -354l99 319h152l95 -319l82 354h154l-157 -525h-156l-99 323l-99 -323h-152z" />
    <glyph glyph-name="wacute" unicode="&#x1e83;" horiz-adv-x="853" 
d="M18 525h158l78 -354l99 319h152l95 -319l82 354h154l-157 -525h-156l-99 323l-99 -323h-152zM456 749h154l-146 -148h-139z" />
    <glyph glyph-name="wcircumflex" unicode="&#x175;" horiz-adv-x="853" 
d="M18 525h158l78 -354l99 319h152l95 -319l82 354h154l-157 -525h-156l-99 323l-99 -323h-152zM361 749h131l130 -148h-126l-70 73l-70 -73h-126z" />
    <glyph glyph-name="wdieresis" unicode="&#x1e85;" horiz-adv-x="853" 
d="M18 525h158l78 -354l99 319h152l95 -319l82 354h154l-157 -525h-156l-99 323l-99 -323h-152zM259 617.5q-23 20.5 -23 53.5t23 53.5t58 20.5t58 -20.5t23 -53.5t-23 -53.5t-58 -20.5t-58 20.5zM479.5 617.5q-22.5 20.5 -22.5 53.5t22.5 53.5t57.5 20.5t58 -20.5t23 -53.5
t-23 -53.5t-58 -20.5t-57.5 20.5z" />
    <glyph glyph-name="wgrave" unicode="&#x1e81;" horiz-adv-x="853" 
d="M18 525h158l78 -354l99 319h152l95 -319l82 354h154l-157 -525h-156l-99 323l-99 -323h-152zM244 749h153l132 -148h-139z" />
    <glyph glyph-name="x" unicode="x" horiz-adv-x="611" 
d="M218 273l-190 252h172l110 -152l104 152h168l-188 -253l203 -272h-173l-122 173l-118 -173h-169z" />
    <glyph glyph-name="y" unicode="y" horiz-adv-x="607" 
d="M107 -76q82 0 130 85l5 15l-234 501h168l135 -328l123 328h161l-219 -531q-41 -98 -101.5 -148t-154.5 -50h-49v128h36z" />
    <glyph glyph-name="yacute" unicode="&#xfd;" horiz-adv-x="607" 
d="M107 -76q82 0 130 85l5 15l-234 501h168l135 -328l123 328h161l-219 -531q-41 -98 -101.5 -148t-154.5 -50h-49v128h36zM333 749h154l-146 -148h-139z" />
    <glyph glyph-name="ycircumflex" unicode="&#x177;" horiz-adv-x="607" 
d="M107 -76q82 0 130 85l5 15l-234 501h168l135 -328l123 328h161l-219 -531q-41 -98 -101.5 -148t-154.5 -50h-49v128h36zM239 749h131l130 -148h-126l-70 73l-70 -73h-126z" />
    <glyph glyph-name="ydieresis" unicode="&#xff;" horiz-adv-x="607" 
d="M107 -76q82 0 130 85l5 15l-234 501h168l135 -328l123 328h161l-219 -531q-41 -98 -101.5 -148t-154.5 -50h-49v128h36zM136 617.5q-23 20.5 -23 53.5t23 53.5t58 20.5t58 -20.5t23 -53.5t-23 -53.5t-58 -20.5t-58 20.5zM356.5 617.5q-22.5 20.5 -22.5 53.5t22.5 53.5
t57.5 20.5t58 -20.5t23 -53.5t-23 -53.5t-58 -20.5t-57.5 20.5z" />
    <glyph glyph-name="ygrave" unicode="&#x1ef3;" horiz-adv-x="607" 
d="M107 -76q82 0 130 85l5 15l-234 501h168l135 -328l123 328h161l-219 -531q-41 -98 -101.5 -148t-154.5 -50h-49v128h36zM121 749h153l132 -148h-139z" />
    <glyph glyph-name="z" unicode="z" horiz-adv-x="559" 
d="M54 95l265 308h-258v122h440v-95l-261 -308h268v-122h-454v95z" />
    <glyph glyph-name="zcaron" unicode="&#x17e;" horiz-adv-x="559" 
d="M54 95l265 308h-258v122h440v-95l-261 -308h268v-122h-454v95zM81 749h127l69 -74l71 74h125l-130 -148h-131z" />
    <glyph glyph-name="ordfeminine" unicode="&#xaa;" horiz-adv-x="447" 
d="M67.5 297.5q-36.5 31.5 -36.5 88.5t45 90t121 33h84v3q-3 73 -72 73q-28 0 -55 -9.5t-49 -28.5l-63 74q36 32 79.5 49t91.5 17q92 0 140 -49t48 -140v-224h-92l-15 43q-27 -24 -59.5 -37.5t-66.5 -13.5q-64 0 -100.5 31.5zM281 397v35h-81q-27 0 -42 -10t-15 -29
q0 -16 13.5 -26t34.5 -10q50 0 90 40z" />
    <glyph glyph-name="ordmasculine" unicode="&#xba;" horiz-adv-x="491" 
d="M135 292q-49 26 -76.5 74t-27.5 111q0 61 28 109t76.5 74.5t109.5 26.5t110 -26.5t76.5 -74.5t27.5 -110t-28 -109.5t-77 -74t-109 -26.5q-61 0 -110 26zM306 406q23 26 23 70q0 43 -22.5 69.5t-60.5 26.5t-60.5 -25.5t-22.5 -69.5t22 -70.5t59 -26.5q39 0 62 26z" />
    <glyph glyph-name="uni03BC" unicode="&#x3bc;" horiz-adv-x="634" 
d="M216 525v-280q0 -65 20.5 -94.5t72.5 -29.5q30 0 58 17t50 48v339h151v-525h-110l-22 68q-75 -80 -174 -80q-27 0 -46 13v-201l-150 -21v746h150z" />
    <glyph glyph-name="zero" unicode="0" horiz-adv-x="642" 
d="M177.5 29.5q-61.5 41.5 -94.5 118.5t-33 181q0 100 33.5 177t95 119.5t142.5 42.5t142.5 -42t95 -118.5t33.5 -178.5q0 -103 -33.5 -180t-95 -119t-142.5 -42q-82 0 -143.5 41.5zM408 185q29 52 29 144q0 91 -27.5 143t-86.5 52t-88.5 -52.5t-29.5 -142.5
q0 -91 28 -143.5t88 -52.5q58 0 87 52z" />
    <glyph glyph-name="one" unicode="1" horiz-adv-x="424" 
d="M189 513l-154 -41v123l187 62h118v-657h-151v513z" />
    <glyph glyph-name="two" unicode="2" horiz-adv-x="592" 
d="M282 314q51 48 72.5 75.5t21.5 54.5q0 40 -24.5 60.5t-71.5 20.5q-37 0 -76.5 -19t-75.5 -55l-91 104q113 113 258 113q70 0 124 -24.5t83.5 -70t29.5 -104.5q0 -53 -26 -100t-79 -98l-141 -135h246v-136h-476v99z" />
    <glyph glyph-name="three" unicode="3" horiz-adv-x="571" 
d="M134.5 13q-62.5 25 -103.5 68l80 96q62 -56 152 -56q51 0 82.5 23t31.5 61q0 37 -30 57.5t-84 20.5h-99v92l160 150h-272v132h455v-102l-173 -163q90 -9 144 -60t54 -131q0 -100 -71 -156.5t-191 -56.5q-73 0 -135.5 25z" />
    <glyph glyph-name="four" unicode="4" horiz-adv-x="609" 
d="M353 148h-314v112l314 397h136v-381h84v-128h-84v-148h-136v148zM353 276v193l-151 -193h151z" />
    <glyph glyph-name="five" unicode="5" horiz-adv-x="545" 
d="M124 13.5q-61 25.5 -101 69.5l84 93q60 -55 141 -55q49 0 78.5 22.5t29.5 60.5q0 39 -25 59.5t-74 20.5h-192v94l56 279h348v-133h-253l-18 -111h69q117 0 180.5 -52.5t63.5 -152.5q0 -101 -69 -160.5t-187 -59.5q-70 0 -131 25.5z" />
    <glyph glyph-name="six" unicode="6" horiz-adv-x="600" 
d="M174.5 26q-59.5 38 -91.5 110t-32 172q0 106 36 188t101.5 127t151.5 45q63 0 117.5 -22.5t95.5 -69.5l-83 -93q-28 28 -57.5 40t-63.5 12q-61 0 -100.5 -39.5t-51.5 -113.5q69 32 143 32q65 0 114 -25t75.5 -70.5t26.5 -103.5q0 -65 -30 -116.5t-84.5 -81t-126.5 -29.5
q-81 0 -140.5 38zM393 142.5q28 24.5 28 67.5q0 38 -28 62t-77 24q-71 0 -123 -23q4 -75 35.5 -115t85.5 -40q51 0 79 24.5z" />
    <glyph glyph-name="seven" unicode="7" horiz-adv-x="564" 
d="M349 519h-309v138h487v-80l-243 -577h-162z" />
    <glyph glyph-name="eight" unicode="8" horiz-adv-x="616" 
d="M171 10.5q-59 22.5 -91.5 64.5t-32.5 98q0 47 27.5 90.5t75.5 75.5q-82 53 -82 148q0 53 31 94t86 64t123 23q72 0 126.5 -22t84.5 -62.5t30 -93.5q0 -78 -84 -143q49 -28 76.5 -70t27.5 -97q0 -56 -33 -99.5t-92.5 -68t-134.5 -24.5q-79 0 -138 22.5zM398.5 429
q14.5 22 14.5 45q0 33 -28.5 52.5t-74.5 19.5t-74.5 -17.5t-28.5 -47.5q0 -31 29.5 -49.5t93.5 -35.5l24 -6q30 17 44.5 39zM391.5 136q31.5 20 31.5 57q0 29 -18.5 46.5t-46.5 27t-85 23.5l-11 3q-37 -19 -54 -42t-17 -52q0 -37 33.5 -60t85.5 -23q50 0 81.5 20z" />
    <glyph glyph-name="nine" unicode="9" horiz-adv-x="602" 
d="M145.5 11q-55.5 23 -98.5 69l77 94q32 -27 63.5 -39.5t69.5 -12.5q67 0 105 39.5t47 115.5q-69 -32 -145 -32q-65 0 -114.5 26t-76 72t-26.5 105q0 64 31 114t86 78t126 28q81 0 140 -37.5t91 -109t32 -171.5q0 -113 -35 -194.5t-100 -124.5t-153 -43q-64 0 -119.5 23z
M412 384q-4 74 -36.5 114t-85.5 40q-49 0 -78 -23.5t-29 -64.5q0 -43 26.5 -65.5t77.5 -22.5q72 0 125 22z" />
    <glyph glyph-name="zero.zero" horiz-adv-x="642" 
d="M177.5 29.5q-61.5 41.5 -94.5 118.5t-33 181q0 100 33.5 177t95 119.5t142.5 42.5t142.5 -42t95 -118.5t33.5 -178.5q0 -103 -33.5 -180t-95 -119t-142.5 -42q-82 0 -143.5 41.5zM324 540q-66 0 -99.5 -57t-33.5 -154q0 -34 7 -74l210 247q-32 38 -84 38zM418.5 173.5
q32.5 56.5 32.5 155.5q0 42 -7 71l-208 -245q32 -38 85 -38q65 0 97.5 56.5z" />
    <glyph glyph-name="zero.tf" 
d="M154.5 30q-58.5 42 -90 119t-31.5 180q0 100 32 177t90.5 119.5t136.5 42.5t137 -42t91 -119t32 -178q0 -102 -32 -179.5t-91 -119.5t-137 -42q-79 0 -137.5 42zM370.5 184.5q25.5 51.5 25.5 144.5q0 195 -101 195q-55 0 -80.5 -52t-25.5 -143q0 -196 103 -196
q53 0 78.5 51.5z" />
    <glyph glyph-name="one.tf" 
d="M276 513l-176 -47v120l209 71h118v-657h-151v513z" />
    <glyph glyph-name="two.tf" 
d="M276 314q51 48 72.5 75.5t21.5 54.5q0 40 -24.5 60.5t-71.5 20.5q-37 0 -76.5 -19t-75.5 -55l-91 104q113 113 258 113q70 0 124 -24.5t83.5 -70t29.5 -104.5q0 -53 -26 -100t-79 -98l-141 -135h246v-136h-476v99z" />
    <glyph glyph-name="three.tf" 
d="M139.5 13q-62.5 25 -102.5 68l79 96q64 -56 153 -56q51 0 82 23t31 61q0 37 -29.5 57.5t-84.5 20.5h-99v91l161 151h-273v132h455v-101l-172 -164q90 -10 143.5 -60.5t53.5 -130.5q0 -100 -71 -156.5t-191 -56.5q-73 0 -135.5 25z" />
    <glyph glyph-name="four.tf" 
d="M339 148h-311v107l311 402h136v-382h85v-127h-85v-148h-136v148zM339 275v204l-157 -204h157z" />
    <glyph glyph-name="five.tf" 
d="M144 13.5q-61 25.5 -101 69.5l83 93q61 -55 142 -55q49 0 78 22.5t29 61.5q0 81 -98 81h-192v92l56 279h348v-133h-253l-18 -112h69q116 0 180 -52.5t64 -151.5q0 -101 -69 -160.5t-187 -59.5q-70 0 -131 25.5z" />
    <glyph glyph-name="six.tf" 
d="M169 26q-59 38 -91 110t-32 172q0 106 36 188t101 127t151 45q63 0 117.5 -22.5t95.5 -69.5l-82 -93q-29 28 -58 40t-64 12q-61 0 -100.5 -39.5t-50.5 -113.5q67 32 143 32q65 0 113.5 -25t75 -70.5t26.5 -103.5q0 -65 -29.5 -116.5t-84.5 -81t-127 -29.5q-81 0 -140 38z
M387.5 142.5q27.5 24.5 27.5 67.5q0 38 -28 62t-77 24q-71 0 -123 -23q4 -75 36 -115t86 -40q51 0 78.5 24.5z" />
    <glyph glyph-name="seven.tf" 
d="M355 519h-309v138h487v-80l-243 -577h-162z" />
    <glyph glyph-name="eight.tf" 
d="M156.5 10.5q-59.5 22.5 -91.5 64.5t-32 98q0 48 27.5 90.5t75.5 75.5q-82 55 -82 148q0 53 31.5 94t86 64t121.5 23q72 0 126.5 -22t84 -62.5t29.5 -93.5q0 -41 -22 -77t-62 -65q105 -63 105 -168q0 -56 -33.5 -99.5t-92.5 -68t-134 -24.5q-78 0 -137.5 22.5z
M385.5 428.5q14.5 22.5 14.5 45.5q0 35 -28.5 54.5t-76.5 19.5q-47 0 -76 -18t-29 -48q0 -34 31.5 -52t102.5 -36q6 -1 18 -5q29 17 43.5 39.5zM378.5 133q32.5 21 32.5 59q0 40 -35.5 60t-108.5 36q-13 3 -23 7q-70 -38 -70 -97q0 -38 34 -62t87 -24q51 0 83.5 21z" />
    <glyph glyph-name="nine.tf" 
d="M136.5 11q-55.5 23 -98.5 69l77 94q32 -27 63.5 -39.5t69.5 -12.5q67 0 105 39.5t47 115.5q-69 -32 -145 -32q-65 0 -114.5 26t-76 72t-26.5 105q0 64 31 114t86 78t126 28q81 0 140 -37.5t91 -109t32 -171.5q0 -113 -35 -194.5t-100 -124.5t-153 -43q-64 0 -119.5 23z
M403 384q-4 74 -36.5 114t-85.5 40q-49 0 -78 -23.5t-29 -64.5q0 -43 26.5 -65.5t77.5 -22.5q72 0 125 22z" />
    <glyph glyph-name="zero.tf.zero" 
d="M154.5 30q-58.5 42 -90 119t-31.5 180q0 100 32 177t90.5 119.5t136.5 42.5t137 -42t91 -119t32 -178q0 -102 -32 -179.5t-91 -119.5t-137 -42q-79 0 -137.5 42zM296 532q-63 0 -94.5 -55.5t-31.5 -147.5q0 -32 5 -65l198 232q-28 36 -77 36zM384.5 179q30.5 54 30.5 150
q0 32 -5 65l-198 -231q30 -38 80 -38q62 0 92.5 54z" />
    <glyph glyph-name="zero.subs" horiz-adv-x="483" 
d="M108.5 -30.5q-49.5 54.5 -49.5 148.5q0 92 50 146.5t132 54.5q83 0 133 -54.5t50 -146.5q0 -93 -50 -148t-133 -55t-132.5 54.5zM309 117q0 99 -66 99q-35 0 -52 -26.5t-17 -72.5q0 -98 67 -98q68 0 68 98z" />
    <glyph glyph-name="one.subs" horiz-adv-x="382" 
d="M167 211l-96 -22v87l121 38h85v-391h-110v288z" />
    <glyph glyph-name="two.subs" horiz-adv-x="455" 
d="M210 112q7 6 25.5 22t25.5 26t7 19q0 37 -54 37q-22 0 -47.5 -11t-49.5 -32l-62 78q35 32 79 50.5t93 18.5q71 0 114 -34t43 -89q0 -34 -16 -60.5t-51 -53.5l-79 -62h145v-98h-314v72z" />
    <glyph glyph-name="three.subs" horiz-adv-x="459" 
d="M130.5 -69q-40.5 16 -65.5 43l61 67q38 -33 88 -33q30 0 48 10.5t18 28.5q0 15 -15 25t-41 10h-76v65l91 71h-161v95h290v-69l-101 -86q58 -6 91.5 -36t33.5 -78q0 -61 -46.5 -95t-126.5 -34q-48 0 -88.5 16z" />
    <glyph glyph-name="four.subs" horiz-adv-x="465" 
d="M258 6h-204v69l204 239h99v-219h52v-89h-52v-83h-99v83zM258 95v100l-88 -100h88z" />
    <glyph glyph-name="five.subs" horiz-adv-x="439" 
d="M116 -69q-39 16 -64 43l64 67q17 -15 36.5 -22.5t46.5 -7.5q28 0 44.5 9.5t16.5 27.5q0 35 -54 35h-126v66l34 164h233v-95h-163l-9 -50h41q75 0 117 -31t42 -88q0 -63 -45.5 -98.5t-125.5 -35.5q-49 0 -88 16z" />
    <glyph glyph-name="six.subs" horiz-adv-x="454" 
d="M108 -35q-45 50 -45 140q0 63 24 111.5t67.5 75.5t100.5 27q45 0 82 -14.5t62 -42.5l-57 -66q-18 16 -37 22.5t-43 6.5q-35 0 -59 -17.5t-34 -50.5q43 15 87 15q65 0 103.5 -32.5t38.5 -85.5q0 -62 -44 -100.5t-117 -38.5q-84 0 -129 50zM301 49q0 18 -16 29t-46 11
q-41 0 -74 -11q4 -35 22.5 -53t48.5 -18q65 0 65 42z" />
    <glyph glyph-name="seven.subs" horiz-adv-x="434" 
d="M250 214h-185v100h313v-51l-146 -340h-115z" />
    <glyph glyph-name="eight.subs" horiz-adv-x="481" 
d="M118.5 -55q-46.5 30 -46.5 81q0 27 16.5 51.5t44.5 44.5q-47 32 -47 87q0 48 44 79t110 31q70 0 112 -29.5t42 -78.5q0 -43 -47 -80q61 -37 61 -99q0 -52 -47 -84.5t-120 -32.5q-76 0 -122.5 30zM293 179q8 11 8 22q0 15 -17 25t-43 10q-25 0 -41.5 -9t-16.5 -22
q0 -16 18 -25.5t57 -17.5l11 -2q16 8 24 19zM288.5 12q19.5 10 19.5 28q0 19 -18.5 27.5t-64.5 19.5l-16 3q-37 -18 -37 -46q0 -19 19 -30.5t49 -11.5q29 0 48.5 10z" />
    <glyph glyph-name="nine.subs" horiz-adv-x="439" 
d="M110 -70q-37 15 -62 42l55 67q20 -16 39.5 -23t43.5 -7q76 0 93 71q-44 -17 -88 -17q-64 0 -103 34t-39 87q0 60 44 97.5t116 37.5q83 0 128.5 -51t45.5 -138q0 -100 -51 -157.5t-140 -57.5q-45 0 -82 15zM283 157q-4 33 -23.5 52t-49.5 19t-47 -11t-17 -30q0 -40 62 -40
q45 0 75 10z" />
    <glyph glyph-name="zero.dnom" horiz-adv-x="483" 
d="M108.5 46.5q-49.5 54.5 -49.5 148.5q0 92 50 146.5t132 54.5q83 0 133 -54.5t50 -146.5q0 -93 -50 -148t-133 -55t-132.5 54.5zM309 194q0 99 -66 99q-35 0 -52 -26.5t-17 -72.5q0 -98 67 -98q68 0 68 98z" />
    <glyph glyph-name="one.dnom" horiz-adv-x="382" 
d="M167 288l-96 -22v87l121 38h85v-391h-110v288z" />
    <glyph glyph-name="two.dnom" horiz-adv-x="455" 
d="M210 189q7 6 25.5 22t25.5 26t7 19q0 37 -54 37q-22 0 -47.5 -11t-49.5 -32l-62 78q35 32 79 50.5t93 18.5q71 0 114 -34t43 -89q0 -34 -16 -60.5t-51 -53.5l-79 -62h145v-98h-314v72z" />
    <glyph glyph-name="three.dnom" horiz-adv-x="459" 
d="M130.5 8q-40.5 16 -65.5 43l61 67q38 -33 88 -33q30 0 48 10.5t18 28.5q0 15 -15 25t-41 10h-76v65l91 71h-161v95h290v-69l-101 -86q58 -6 91.5 -36t33.5 -78q0 -61 -46.5 -95t-126.5 -34q-48 0 -88.5 16z" />
    <glyph glyph-name="four.dnom" horiz-adv-x="465" 
d="M258 83h-204v69l204 239h99v-219h52v-89h-52v-83h-99v83zM258 172v100l-88 -100h88z" />
    <glyph glyph-name="five.dnom" horiz-adv-x="439" 
d="M116 8q-39 16 -64 43l64 67q17 -15 36.5 -22.5t46.5 -7.5q28 0 44.5 9.5t16.5 27.5q0 35 -54 35h-126v66l34 164h233v-95h-163l-9 -50h41q75 0 117 -31t42 -88q0 -63 -45.5 -98.5t-125.5 -35.5q-49 0 -88 16z" />
    <glyph glyph-name="six.dnom" horiz-adv-x="454" 
d="M108 42q-45 50 -45 140q0 63 24 111.5t67.5 75.5t100.5 27q45 0 82 -14.5t62 -42.5l-57 -66q-18 16 -37 22.5t-43 6.5q-35 0 -59 -17.5t-34 -50.5q43 15 87 15q65 0 103.5 -32.5t38.5 -85.5q0 -62 -44 -100.5t-117 -38.5q-84 0 -129 50zM301 126q0 18 -16 29t-46 11
q-41 0 -74 -11q4 -35 22.5 -53t48.5 -18q65 0 65 42z" />
    <glyph glyph-name="seven.dnom" horiz-adv-x="434" 
d="M250 291h-185v100h313v-51l-146 -340h-115z" />
    <glyph glyph-name="eight.dnom" horiz-adv-x="481" 
d="M118.5 22q-46.5 30 -46.5 81q0 27 16.5 51.5t44.5 44.5q-47 32 -47 87q0 48 44 79t110 31q70 0 112 -29.5t42 -78.5q0 -43 -47 -80q61 -37 61 -99q0 -52 -47 -84.5t-120 -32.5q-76 0 -122.5 30zM293 256q8 11 8 22q0 15 -17 25t-43 10q-25 0 -41.5 -9t-16.5 -22
q0 -16 18 -25.5t57 -17.5l11 -2q16 8 24 19zM288.5 89q19.5 10 19.5 28q0 19 -18.5 27.5t-64.5 19.5l-16 3q-37 -18 -37 -46q0 -19 19 -30.5t49 -11.5q29 0 48.5 10z" />
    <glyph glyph-name="nine.dnom" horiz-adv-x="439" 
d="M110 7q-37 15 -62 42l55 67q20 -16 39.5 -23t43.5 -7q76 0 93 71q-44 -17 -88 -17q-64 0 -103 34t-39 87q0 60 44 97.5t116 37.5q83 0 128.5 -51t45.5 -138q0 -100 -51 -157.5t-140 -57.5q-45 0 -82 15zM283 234q-4 33 -23.5 52t-49.5 19t-47 -11t-17 -30q0 -40 62 -40
q45 0 75 10z" />
    <glyph glyph-name="zero.numr" horiz-adv-x="483" 
d="M108.5 311.5q-49.5 54.5 -49.5 148.5q0 92 50 146.5t132 54.5q83 0 133 -54.5t50 -146.5q0 -93 -50 -148t-133 -55t-132.5 54.5zM309 459q0 99 -66 99q-35 0 -52 -26.5t-17 -72.5q0 -98 67 -98q68 0 68 98z" />
    <glyph glyph-name="one.numr" horiz-adv-x="382" 
d="M167 553l-96 -22v87l121 38h85v-391h-110v288z" />
    <glyph glyph-name="two.numr" horiz-adv-x="455" 
d="M210 454q7 6 25.5 22t25.5 26t7 19q0 37 -54 37q-22 0 -47.5 -11t-49.5 -32l-62 78q35 32 79 50.5t93 18.5q71 0 114 -34t43 -89q0 -34 -16 -60.5t-51 -53.5l-79 -62h145v-98h-314v72z" />
    <glyph glyph-name="three.numr" horiz-adv-x="459" 
d="M130.5 273q-40.5 16 -65.5 43l61 67q38 -33 88 -33q30 0 48 10.5t18 28.5q0 15 -15 25t-41 10h-76v65l91 71h-161v95h290v-69l-101 -86q58 -6 91.5 -36t33.5 -78q0 -61 -46.5 -95t-126.5 -34q-48 0 -88.5 16z" />
    <glyph glyph-name="four.numr" horiz-adv-x="465" 
d="M258 348h-204v69l204 239h99v-219h52v-89h-52v-83h-99v83zM258 437v100l-88 -100h88z" />
    <glyph glyph-name="five.numr" horiz-adv-x="439" 
d="M116 273q-39 16 -64 43l64 67q17 -15 36.5 -22.5t46.5 -7.5q28 0 44.5 9.5t16.5 27.5q0 35 -54 35h-126v66l34 164h233v-95h-163l-9 -50h41q75 0 117 -31t42 -88q0 -63 -45.5 -98.5t-125.5 -35.5q-49 0 -88 16z" />
    <glyph glyph-name="six.numr" horiz-adv-x="454" 
d="M108 307q-45 50 -45 140q0 63 24 111.5t67.5 75.5t100.5 27q45 0 82 -14.5t62 -42.5l-57 -66q-18 16 -37 22.5t-43 6.5q-35 0 -59 -17.5t-34 -50.5q43 15 87 15q65 0 103.5 -32.5t38.5 -85.5q0 -62 -44 -100.5t-117 -38.5q-84 0 -129 50zM301 391q0 18 -16 29t-46 11
q-41 0 -74 -11q4 -35 22.5 -53t48.5 -18q65 0 65 42z" />
    <glyph glyph-name="seven.numr" horiz-adv-x="434" 
d="M250 556h-185v100h313v-51l-146 -340h-115z" />
    <glyph glyph-name="eight.numr" horiz-adv-x="481" 
d="M118.5 287q-46.5 30 -46.5 81q0 27 16.5 51.5t44.5 44.5q-47 32 -47 87q0 48 44 79t110 31q70 0 112 -29.5t42 -78.5q0 -43 -47 -80q61 -37 61 -99q0 -52 -47 -84.5t-120 -32.5q-76 0 -122.5 30zM293 521q8 11 8 22q0 15 -17 25t-43 10q-25 0 -41.5 -9t-16.5 -22
q0 -16 18 -25.5t57 -17.5l11 -2q16 8 24 19zM288.5 354q19.5 10 19.5 28q0 19 -18.5 27.5t-64.5 19.5l-16 3q-37 -18 -37 -46q0 -19 19 -30.5t49 -11.5q29 0 48.5 10z" />
    <glyph glyph-name="nine.numr" horiz-adv-x="439" 
d="M110 272q-37 15 -62 42l55 67q20 -16 39.5 -23t43.5 -7q76 0 93 71q-44 -17 -88 -17q-64 0 -103 34t-39 87q0 60 44 97.5t116 37.5q83 0 128.5 -51t45.5 -138q0 -100 -51 -157.5t-140 -57.5q-45 0 -82 15zM283 499q-4 33 -23.5 52t-49.5 19t-47 -11t-17 -30q0 -40 62 -40
q45 0 75 10z" />
    <glyph glyph-name="uni2070" unicode="&#x2070;" horiz-adv-x="483" 
d="M108.5 378.5q-49.5 54.5 -49.5 148.5q0 92 50 146.5t132 54.5q83 0 133 -54.5t50 -146.5q0 -93 -50 -148t-133 -55t-132.5 54.5zM309 526q0 99 -66 99q-35 0 -52 -26.5t-17 -72.5q0 -98 67 -98q68 0 68 98z" />
    <glyph glyph-name="uni00B9" unicode="&#xb9;" horiz-adv-x="382" 
d="M167 620l-96 -22v87l121 38h85v-391h-110v288z" />
    <glyph glyph-name="uni00B2" unicode="&#xb2;" horiz-adv-x="455" 
d="M210 521q7 6 25.5 22t25.5 26t7 19q0 37 -54 37q-22 0 -47.5 -11t-49.5 -32l-62 78q35 32 79 50.5t93 18.5q71 0 114 -34t43 -89q0 -34 -16 -60.5t-51 -53.5l-79 -62h145v-98h-314v72z" />
    <glyph glyph-name="uni00B3" unicode="&#xb3;" horiz-adv-x="459" 
d="M130.5 340q-40.5 16 -65.5 43l61 67q38 -33 88 -33q30 0 48 10.5t18 28.5q0 15 -15 25t-41 10h-76v65l91 71h-161v95h290v-69l-101 -86q58 -6 91.5 -36t33.5 -78q0 -61 -46.5 -95t-126.5 -34q-48 0 -88.5 16z" />
    <glyph glyph-name="uni2074" unicode="&#x2074;" horiz-adv-x="465" 
d="M258 415h-204v69l204 239h99v-219h52v-89h-52v-83h-99v83zM258 504v100l-88 -100h88z" />
    <glyph glyph-name="uni2075" unicode="&#x2075;" horiz-adv-x="439" 
d="M116 340q-39 16 -64 43l64 67q17 -15 36.5 -22.5t46.5 -7.5q28 0 44.5 9.5t16.5 27.5q0 35 -54 35h-126v66l34 164h233v-95h-163l-9 -50h41q75 0 117 -31t42 -88q0 -63 -45.5 -98.5t-125.5 -35.5q-49 0 -88 16z" />
    <glyph glyph-name="uni2076" unicode="&#x2076;" horiz-adv-x="454" 
d="M108 374q-45 50 -45 140q0 63 24 111.5t67.5 75.5t100.5 27q45 0 82 -14.5t62 -42.5l-57 -66q-18 16 -37 22.5t-43 6.5q-35 0 -59 -17.5t-34 -50.5q43 15 87 15q65 0 103.5 -32.5t38.5 -85.5q0 -62 -44 -100.5t-117 -38.5q-84 0 -129 50zM301 458q0 18 -16 29t-46 11
q-41 0 -74 -11q4 -35 22.5 -53t48.5 -18q65 0 65 42z" />
    <glyph glyph-name="uni2077" unicode="&#x2077;" horiz-adv-x="434" 
d="M250 623h-185v100h313v-51l-146 -340h-115z" />
    <glyph glyph-name="uni2078" unicode="&#x2078;" horiz-adv-x="481" 
d="M118.5 354q-46.5 30 -46.5 81q0 27 16.5 51.5t44.5 44.5q-47 32 -47 87q0 48 44 79t110 31q70 0 112 -29.5t42 -78.5q0 -43 -47 -80q61 -37 61 -99q0 -52 -47 -84.5t-120 -32.5q-76 0 -122.5 30zM293 588q8 11 8 22q0 15 -17 25t-43 10q-25 0 -41.5 -9t-16.5 -22
q0 -16 18 -25.5t57 -17.5l11 -2q16 8 24 19zM288.5 421q19.5 10 19.5 28q0 19 -18.5 27.5t-64.5 19.5l-16 3q-37 -18 -37 -46q0 -19 19 -30.5t49 -11.5q29 0 48.5 10z" />
    <glyph glyph-name="uni2079" unicode="&#x2079;" horiz-adv-x="439" 
d="M110 339q-37 15 -62 42l55 67q20 -16 39.5 -23t43.5 -7q76 0 93 71q-44 -17 -88 -17q-64 0 -103 34t-39 87q0 60 44 97.5t116 37.5q83 0 128.5 -51t45.5 -138q0 -100 -51 -157.5t-140 -57.5q-45 0 -82 15zM283 566q-4 33 -23.5 52t-49.5 19t-47 -11t-17 -30q0 -40 62 -40
q45 0 75 10z" />
    <glyph glyph-name="fraction" unicode="&#x2044;" horiz-adv-x="191" 
d="M263 657h151l-486 -657h-151z" />
    <glyph glyph-name="onehalf" unicode="&#xbd;" horiz-adv-x="1010" 
d="M628 657h151l-485 -657h-151zM167 554l-96 -23v87l121 38h85v-391h-110v289zM764 190q37 31 48 42t11 25q0 36 -54 36q-22 0 -47.5 -11t-49.5 -32l-62 78q36 33 79.5 51.5t92.5 18.5q71 0 114 -34t43 -89q0 -34 -16 -60.5t-51 -54.5l-79 -62h144v-98h-314v72z" />
    <glyph glyph-name="onequarter" unicode="&#xbc;" horiz-adv-x="941" 
d="M636 657h151l-485 -657h-152zM167 554l-96 -23v87l121 38h85v-391h-110v289zM734 83h-204v70l204 238h98v-219h53v-89h-53v-83h-98v83zM734 172v100l-88 -100h88z" />
    <glyph glyph-name="threequarters" unicode="&#xbe;" horiz-adv-x="1000" 
d="M693 657h151l-485 -657h-151zM130 274q-40 16 -65 43l61 66q37 -32 88 -32q30 0 48 10t18 28q0 16 -14.5 25.5t-41.5 9.5h-76v65l91 72h-161v94h290v-68l-101 -86q57 -6 91 -36.5t34 -77.5q0 -61 -46.5 -95t-126.5 -34q-49 0 -89 16zM792 83h-203v70l203 238h99v-219h52
v-89h-52v-83h-99v83zM792 172v100l-88 -100h88z" />
    <glyph glyph-name="period" unicode="." horiz-adv-x="253" 
d="M63 14q-25 25 -25 62q0 38 25 62.5t62 24.5q39 0 64 -24t25 -63q0 -38 -25 -62.5t-64 -24.5q-37 0 -62 25z" />
    <glyph glyph-name="comma" unicode="," horiz-adv-x="253" 
d="M50 14.5q18 70.5 23 128.5h138q-5 -64 -27.5 -134t-54.5 -129h-123q26 64 44 134.5z" />
    <glyph glyph-name="colon" unicode=":" horiz-adv-x="253" 
d="M63 383.5q-25 24.5 -25 61.5q0 39 25 63.5t62 24.5q39 0 64 -24.5t25 -63.5q0 -38 -25 -62t-64 -24q-37 0 -62 24.5zM63 14q-25 25 -25 62q0 38 25 62.5t62 24.5q39 0 64 -24t25 -63q0 -38 -25 -62.5t-64 -24.5q-37 0 -62 25z" />
    <glyph glyph-name="semicolon" unicode=";" horiz-adv-x="253" 
d="M71 383.5q-25 24.5 -25 61.5q0 39 25 63.5t63 24.5t63 -24.5t25 -63.5q0 -37 -25 -61.5t-63 -24.5t-63 24.5zM45 14.5q18 70.5 23 128.5h138q-6 -65 -28.5 -135t-54.5 -128h-122q26 64 44 134.5z" />
    <glyph glyph-name="ellipsis" unicode="&#x2026;" horiz-adv-x="748" 
d="M63 14q-25 25 -25 62q0 38 25 62.5t62 24.5q39 0 64 -24t25 -63q0 -38 -25 -62.5t-64 -24.5q-37 0 -62 25zM310 14q-25 25 -25 62q0 39 25 63t63 24q39 0 64 -24t25 -63q0 -38 -25 -62.5t-64 -24.5q-38 0 -63 25zM558 14q-25 25 -25 62q0 39 25 63t63 24q39 0 63.5 -24
t24.5 -63q0 -38 -25 -62.5t-63 -24.5t-63 25z" />
    <glyph glyph-name="exclam" unicode="!" horiz-adv-x="304" 
d="M72 676h161l-14 -446h-134zM89 14q-25 25 -25 62q0 38 25 62.5t62 24.5q39 0 64 -24t25 -63q0 -38 -25 -62.5t-64 -24.5q-37 0 -62 25z" />
    <glyph glyph-name="exclamdown" unicode="&#xa1;" horiz-adv-x="306" 
d="M90.5 387q-24.5 24 -24.5 63q0 38 25 62.5t63 24.5t63 -24.5t25 -62.5q0 -39 -25 -63t-63 -24q-39 0 -63.5 24zM87 296h134l12 -446h-160z" />
    <glyph glyph-name="question" unicode="?" horiz-adv-x="543" 
d="M205.5 330q25.5 36 68.5 71q34 28 51.5 48t17.5 40q0 29 -20.5 43.5t-59.5 14.5q-86 0 -156 -64l-87 101q47 49 116 76.5t144 27.5q67 0 117.5 -22.5t78 -64t27.5 -95.5q0 -44 -23 -80t-66 -71t-65 -60.5t-22 -55.5v-9h-147v19q0 45 25.5 81zM190 14q-25 25 -25 62
q0 39 25 63t63 24q39 0 64 -24t25 -63q0 -38 -25 -62.5t-64 -24.5q-38 0 -63 25z" />
    <glyph glyph-name="questiondown" unicode="&#xbf;" horiz-adv-x="537" 
d="M229 387q-25 24 -25 63q0 38 25 62.5t64 24.5q38 0 63 -24.5t25 -62.5q0 -39 -25 -63t-63 -24q-39 0 -64 24zM148.5 -139.5q-50.5 22.5 -78 64t-27.5 95.5q0 44 22.5 80t66.5 71q43 34 65 60.5t22 56.5v8h147v-18q0 -46 -25.5 -82t-68.5 -71q-34 -28 -51.5 -47.5
t-17.5 -39.5q0 -59 80 -59q86 0 156 64l87 -101q-47 -49 -116 -76.5t-144 -27.5q-67 0 -117.5 22.5z" />
    <glyph glyph-name="periodcentered" unicode="&#xb7;" horiz-adv-x="253" 
d="M63 305.5q-25 24.5 -25 61.5q0 38 25 62.5t62 24.5q39 0 64 -24t25 -63q0 -38 -25 -62t-64 -24q-37 0 -62 24.5z" />
    <glyph glyph-name="bullet" unicode="&#x2022;" horiz-adv-x="428" 
d="M144 225.5q-32 18.5 -50.5 50t-18.5 69.5q0 39 18.5 70.5t50.5 50t69 18.5q38 0 70 -18.5t51 -50t19 -70.5q0 -38 -19 -70t-51 -50t-70 -18q-37 0 -69 18.5z" />
    <glyph glyph-name="asterisk" unicode="*" horiz-adv-x="466" 
d="M186 426l-82 -67l-66 92l103 56l-103 57l66 93l82 -68l-10 106h114l-10 -105l82 67l66 -93l-104 -57l104 -56l-66 -92l-82 67l10 -105h-114z" />
    <glyph glyph-name="numbersign" unicode="#" horiz-adv-x="659" 
d="M125 148h-88l16 113h87l20 141h-87l16 113h87l16 114h128l-16 -114h103l16 114h128l-16 -114h87l-16 -113h-87l-19 -141h87l-17 -113h-87l-17 -121h-127l17 121h-103l-17 -121h-128zM371 261l20 141h-103l-20 -141h103z" />
    <glyph glyph-name="slash" unicode="/" horiz-adv-x="507" 
d="M329 735h162l-312 -885h-162z" />
    <glyph glyph-name="backslash" unicode="\" horiz-adv-x="507" 
d="M17 735h162l312 -885h-162z" />
    <glyph glyph-name="exclamdown.case" horiz-adv-x="304" 
d="M89 537q-25 24 -25 63q0 38 25 62.5t64 24.5q37 0 62 -24.5t25 -62.5t-25 -62.5t-62 -24.5q-39 0 -64 24zM85 446h134l13 -446h-161z" />
    <glyph glyph-name="questiondown.case" horiz-adv-x="543" 
d="M226 537q-25 24 -25 63q0 38 25 62.5t64 24.5q38 0 63 -24.5t25 -62.5q0 -39 -25 -63t-63 -24q-39 0 -64 24zM145.5 10.5q-50.5 22.5 -78 64t-27.5 95.5q0 44 22.5 80t66.5 71q43 34 65 60.5t22 56.5v8h147v-18q0 -46 -25.5 -82t-68.5 -71q-34 -28 -51.5 -47.5
t-17.5 -39.5q0 -29 20.5 -44t59.5 -15q86 0 156 64l87 -101q-48 -48 -117 -76t-143 -28q-67 0 -117.5 22.5z" />
    <glyph glyph-name="slash.case" horiz-adv-x="507" 
d="M329 777h162l-312 -885h-162z" />
    <glyph glyph-name="backslash.case" horiz-adv-x="507" 
d="M17 777h162l312 -885h-162z" />
    <glyph glyph-name="parenleft" unicode="(" horiz-adv-x="393" 
d="M102.5 51.5q-39.5 116.5 -39.5 240.5q0 122 40 239t117 204h153q-74 -95 -118 -212t-44 -231t44 -231t118 -213h-153q-78 87 -117.5 203.5z" />
    <glyph glyph-name="parenright" unicode=")" horiz-adv-x="393" 
d="M138 61.5q44 117.5 44 230.5q0 114 -44 230.5t-118 212.5h153q77 -86 117 -202.5t40 -240.5q0 -122 -40 -239t-117 -205h-153q74 96 118 213.5z" />
    <glyph glyph-name="braceleft" unicode="{" horiz-adv-x="490" 
d="M173 -94.5q-57 57.5 -57 166.5v40q0 48 -18 79.5t-60 49.5v101q42 19 60 50.5t18 79.5v40q0 109 57 166t166 57h123l-21 -146h-71q-49 0 -76 -26.5t-27 -76.5v-52q0 -50 -17 -82.5t-57 -59.5q40 -27 57 -59.5t17 -82.5v-52q0 -50 26.5 -76.5t76.5 -26.5h71l21 -147h-123
q-109 0 -166 57.5z" />
    <glyph glyph-name="braceright" unicode="}" horiz-adv-x="490" 
d="M120 -6q50 0 76.5 27t26.5 77v51q0 50 17 83t57 60q-40 27 -57 59.5t-17 82.5v52q0 50 -26.5 76.5t-76.5 26.5h-72l-21 146h124q109 0 166 -57.5t57 -165.5v-41q0 -48 18 -79t60 -50v-100q-42 -19 -60 -50.5t-18 -79.5v-40q0 -109 -57 -166.5t-166 -57.5h-124l21 146h72z
" />
    <glyph glyph-name="bracketleft" unicode="[" horiz-adv-x="481" 
d="M96 735h357l-20 -147h-182v-592h182l20 -148h-357v887z" />
    <glyph glyph-name="bracketright" unicode="]" horiz-adv-x="481" 
d="M48 -4h183v591h-183l-20 148h357v-887h-357z" />
    <glyph glyph-name="parenleft.case" horiz-adv-x="393" 
d="M102.5 93.5q-39.5 116.5 -39.5 240.5q0 122 40 239t117 204h153q-74 -95 -118 -212.5t-44 -230.5q0 -114 44 -231t118 -213h-153q-78 87 -117.5 203.5z" />
    <glyph glyph-name="parenright.case" horiz-adv-x="393" 
d="M138 103.5q44 117.5 44 230.5t-44 230t-118 213h153q77 -86 117 -203t40 -240q0 -122 -40 -239t-117 -205h-153q74 96 118 213.5z" />
    <glyph glyph-name="braceleft.case" horiz-adv-x="490" 
d="M173 -52.5q-57 57.5 -57 166.5v40q0 48 -18 79.5t-60 49.5v101q42 18 60 49.5t18 79.5v41q0 108 57 165.5t166 57.5h123l-21 -146h-71q-49 0 -76 -26.5t-27 -76.5v-52q0 -50 -17 -82.5t-57 -59.5q40 -28 57 -60t17 -83v-51q0 -50 26.5 -76.5t76.5 -26.5h71l21 -147h-123
q-109 0 -166 57.5z" />
    <glyph glyph-name="braceright.case" horiz-adv-x="490" 
d="M120 36q50 0 76.5 27t26.5 77v51q0 50 17 83t57 60q-40 27 -57 59t-17 83v52q0 50 -26.5 76.5t-76.5 26.5h-72l-21 146h124q109 0 166 -57.5t57 -165.5v-41q0 -48 18 -79.5t60 -49.5v-101q-42 -18 -60 -49.5t-18 -79.5v-40q0 -109 -57 -166.5t-166 -57.5h-124l21 146h72z
" />
    <glyph glyph-name="bracketleft.case" horiz-adv-x="481" 
d="M96 777h357l-20 -147h-182v-592h182l20 -148h-357v887z" />
    <glyph glyph-name="bracketright.case" horiz-adv-x="481" 
d="M48 38h183v591h-183l-20 148h357v-887h-357z" />
    <glyph glyph-name="hyphen" unicode="-" horiz-adv-x="458" 
d="M55 375h348v-135h-348v135z" />
    <glyph glyph-name="uni00AD" unicode="&#xad;" horiz-adv-x="458" 
d="M55 375h348v-135h-348v135z" />
    <glyph glyph-name="endash" unicode="&#x2013;" horiz-adv-x="490" 
d="M0 373h490v-132h-490v132z" />
    <glyph glyph-name="emdash" unicode="&#x2014;" horiz-adv-x="980" 
d="M0 373h980v-132h-980v132z" />
    <glyph glyph-name="underscore" unicode="_" horiz-adv-x="490" 
d="M0 -71h490v-124h-490v124z" />
    <glyph glyph-name="hyphen.case" horiz-adv-x="458" 
d="M55 412h348v-135h-348v135z" />
    <glyph glyph-name="endash.case" horiz-adv-x="490" 
d="M0 411h490v-132h-490v132z" />
    <glyph glyph-name="emdash.case" horiz-adv-x="980" 
d="M0 411h980v-132h-980v132z" />
    <glyph glyph-name="quotesinglbase" unicode="&#x201a;" horiz-adv-x="266" 
d="M56.5 15q17.5 70 22.5 128h139q-6 -65 -28.5 -135t-54.5 -128h-122q26 65 43.5 135z" />
    <glyph glyph-name="quotedblbase" unicode="&#x201e;" horiz-adv-x="480" 
d="M56.5 15q17.5 70 22.5 128h139q-6 -65 -28.5 -135t-54.5 -128h-122q26 65 43.5 135zM270.5 15q17.5 70 22.5 128h139q-6 -65 -28.5 -135t-54.5 -128h-122q26 65 43.5 135z" />
    <glyph glyph-name="quotedblleft" unicode="&#x201c;" horiz-adv-x="486" 
d="M74.5 551.5q21.5 68.5 52.5 124.5h122q-25 -64 -42 -132t-22 -126h-139q7 65 28.5 133.5zM288.5 551.5q21.5 68.5 52.5 124.5h122q-25 -64 -42 -132t-22 -126h-139q7 65 28.5 133.5z" />
    <glyph glyph-name="quotedblright" unicode="&#x201d;" horiz-adv-x="486" 
d="M67 549.5q17 68.5 22 126.5h139q-7 -65 -28.5 -133.5t-52.5 -125.5h-122q25 64 42 132.5zM281 549.5q17 68.5 22 126.5h139q-7 -65 -28.5 -133.5t-52.5 -125.5h-122q25 64 42 132.5z" />
    <glyph glyph-name="quoteleft" unicode="&#x2018;" horiz-adv-x="272" 
d="M74.5 551.5q21.5 68.5 52.5 124.5h122q-25 -64 -42 -132t-22 -126h-139q7 65 28.5 133.5z" />
    <glyph glyph-name="quoteright" unicode="&#x2019;" horiz-adv-x="272" 
d="M67 549.5q17 68.5 22 126.5h139q-7 -65 -28.5 -133.5t-52.5 -125.5h-122q25 64 42 132.5z" />
    <glyph glyph-name="guillemotleft" unicode="&#xab;" horiz-adv-x="592" 
d="M49 277l135 204h149l-132 -204l132 -205h-149zM281 277l135 204h149l-132 -204l132 -205h-149z" />
    <glyph glyph-name="guillemotright" unicode="&#xbb;" horiz-adv-x="592" 
d="M167 276l-132 205h149l135 -205l-135 -204h-149zM399 276l-132 205h149l135 -205l-135 -204h-149z" />
    <glyph glyph-name="guilsinglleft" unicode="&#x2039;" horiz-adv-x="360" 
d="M49 277l135 204h149l-132 -204l132 -205h-149z" />
    <glyph glyph-name="guilsinglright" unicode="&#x203a;" horiz-adv-x="360" 
d="M167 276l-132 205h149l135 -205l-135 -204h-149z" />
    <glyph glyph-name="quotedbl" unicode="&#x22;" horiz-adv-x="491" 
d="M64 676h148l-10 -283h-129zM279 676h148l-9 -283h-129z" />
    <glyph glyph-name="quotesingle" unicode="'" horiz-adv-x="276" 
d="M64 676h148l-10 -283h-129z" />
    <glyph glyph-name="guillemotleft.case" horiz-adv-x="592" 
d="M49 341l135 204h149l-132 -204l132 -205h-149zM281 341l135 204h149l-132 -204l132 -205h-149z" />
    <glyph glyph-name="guillemotright.case" horiz-adv-x="592" 
d="M167 340l-132 205h149l135 -205l-135 -204h-149zM399 340l-132 205h149l135 -205l-135 -204h-149z" />
    <glyph glyph-name="guilsinglleft.case" horiz-adv-x="360" 
d="M49 341l135 204h149l-132 -204l132 -205h-149z" />
    <glyph glyph-name="guilsinglright.case" horiz-adv-x="360" 
d="M167 340l-132 205h149l135 -205l-135 -204h-149z" />
    <glyph glyph-name="period.dnom" horiz-adv-x="198" 
d="M43 12.5q-21 20.5 -21 51.5t21 51.5t52 20.5q32 0 53 -20.5t21 -51.5t-21 -51.5t-53 -20.5q-31 0 -52 20.5z" />
    <glyph glyph-name="comma.dnom" horiz-adv-x="198" 
d="M43 126h118q-5 -45 -20.5 -94.5t-39.5 -90.5h-104q36 100 46 185z" />
    <glyph glyph-name="period.numr" horiz-adv-x="198" 
d="M47 277.5q-21 20.5 -21 51.5t21 51.5t52 20.5q32 0 52.5 -20.5t20.5 -51.5t-20.5 -51.5t-52.5 -20.5q-31 0 -52 20.5z" />
    <glyph glyph-name="comma.numr" horiz-adv-x="198" 
d="M53 391h118q-5 -44 -20.5 -94t-39.5 -91h-104q36 100 46 185z" />
    <glyph glyph-name="period.subs" horiz-adv-x="198" 
d="M47 -65.5q-21 20.5 -21 51.5q0 32 21 52t52 20q32 0 52.5 -20t20.5 -52q0 -31 -20.5 -51.5t-52.5 -20.5q-31 0 -52 20.5z" />
    <glyph glyph-name="comma.subs" horiz-adv-x="198" 
d="M53 41h118q-5 -45 -20.5 -94.5t-39.5 -90.5h-104q36 101 46 185z" />
    <glyph glyph-name="uni00A0" unicode="&#xa0;" horiz-adv-x="255" 
 />
    <glyph glyph-name="cent" unicode="&#xa2;" 
d="M116 167.5q-50 66.5 -50 169.5q0 92 51 160.5t135 91.5v124l142 23v-144q79 -17 130 -78l-82 -85q-46 46 -104 46q-57 0 -92 -38.5t-35 -99.5t35 -99.5t91 -38.5q64 0 112 48l81 -89q-56 -61 -136 -78v-129l-140 -22v152q-88 20 -138 86.5z" />
    <glyph glyph-name="currency" unicode="&#xa4;" 
d="M88 230q-22 47 -22 101t23 100l-76 76l95 93l76 -75q51 27 109 27q62 0 111 -27l75 75l94 -93l-75 -76q23 -48 23 -101q0 -51 -23 -99l75 -76l-94 -94l-76 76q-48 -27 -110 -27q-61 0 -109 25l-76 -74l-95 94zM366 253.5q28 30.5 28 76.5q0 45 -27.5 76.5t-73.5 31.5
q-45 0 -72.5 -31t-27.5 -76q0 -46 27.5 -77t71.5 -31q46 0 74 30.5z" />
    <glyph glyph-name="dollar" unicode="$" 
d="M17 99l77 104q38 -36 91 -55.5t112 -19.5q94 0 94 61q0 36 -27.5 53t-96.5 31q-77 17 -124.5 40t-72 62.5t-24.5 103.5q0 68 46.5 118t125.5 67v117l143 22v-139q99 -19 173 -99l-84 -91q-32 34 -76 50t-87 16q-44 0 -67 -14.5t-23 -44.5q0 -23 11.5 -36t35.5 -21.5
t76 -21.5q117 -28 171 -75.5t54 -131.5q0 -77 -48 -129.5t-136 -66.5v-128l-141 -23v151q-113 18 -203 100z" />
    <glyph glyph-name="Euro" unicode="&#x20ac;" 
d="M190 47.5q-73 59.5 -101 162.5h-82l25 91h43v27q0 20 1 30h-69l25 90h60q30 100 103.5 160t170.5 60q69 0 123 -25t92 -67l-89 -91q-51 48 -119 48q-43 0 -77 -22t-54 -63h179l-25 -90h-178q-1 -10 -1 -30q0 -19 1 -27h166l-25 -91h-117q20 -41 53.5 -63.5t76.5 -22.5
q36 0 65 11.5t60 39.5l89 -93q-44 -46 -97.5 -70t-123.5 -24q-102 0 -175 59.5z" />
    <glyph glyph-name="florin" unicode="&#x192;" 
d="M72 127q56 0 86 25.5t44 86.5l7 34h-117v127h145l8 36q24 113 87.5 167t175.5 54h61v-127h-53q-56 0 -86.5 -26t-42.5 -86l-4 -18h126v-127h-152l-11 -52q-23 -113 -86.5 -167t-176.5 -54h-67v127h56z" />
    <glyph glyph-name="sterling" unicode="&#xa3;" 
d="M106 260h-77v127h106l9 41q25 112 91 170.5t174 58.5h131v-133h-124q-54 0 -89 -28t-47 -85l-6 -24h199v-127h-225l-27 -127h331v-133h-483v99z" />
    <glyph glyph-name="yen" unicode="&#xa5;" 
d="M220 101h-154v94h154v61h-154v94h102l-160 307h175l113 -259l113 259h169l-160 -307h102v-94h-153v-61h153v-94h-153v-101h-147v101z" />
    <glyph glyph-name="plus" unicode="+" 
d="M227 264h-164v133h164v163h133v-163h163v-133h-163v-164h-133v164z" />
    <glyph glyph-name="minus" unicode="&#x2212;" 
d="M77 399h432v-137h-432v137z" />
    <glyph glyph-name="multiply" unicode="&#xd7;" 
d="M80 211l120 120l-120 119l93 94l120 -120l120 120l93 -94l-119 -119l119 -120l-93 -94l-120 120l-120 -120z" />
    <glyph glyph-name="divide" unicode="&#xf7;" 
d="M235 468q-23 22 -23 57t23 57t57 22q36 0 58.5 -22t22.5 -57t-22.5 -57t-58.5 -22q-34 0 -57 22zM77 399h432v-137h-432v137zM235 79.5q-23 22.5 -23 56.5q0 35 23 57.5t57 22.5q36 0 58.5 -22.5t22.5 -57.5t-22.5 -57t-58.5 -22q-34 0 -57 22.5z" />
    <glyph glyph-name="equal" unicode="=" 
d="M77 517h432v-138h-432v138zM77 279h432v-137h-432v137z" />
    <glyph glyph-name="notequal" unicode="&#x2260;" 
d="M102 66l35 76h-60v137h122l47 100h-169v138h231l57 123l121 -49l-35 -74h58v-138h-120l-47 -100h167v-137h-229l-58 -127z" />
    <glyph glyph-name="greater" unicode="&#x3e;" 
d="M87 193l249 138l-249 138l68 119l339 -195v-123l-339 -195z" />
    <glyph glyph-name="less" unicode="&#x3c;" 
d="M92 269v123l339 195l68 -117l-249 -138l249 -139l-68 -119z" />
    <glyph glyph-name="greaterequal" unicode="&#x2265;" 
d="M93 304l252 105l-252 106l43 120l356 -163v-123l-356 -163zM79 134h413v-134h-413v134z" />
    <glyph glyph-name="lessequal" unicode="&#x2264;" 
d="M95 349v123l355 163l44 -119l-253 -105l253 -106l-44 -119zM95 134h412v-134h-412v134z" />
    <glyph glyph-name="plusminus" unicode="&#xb1;" 
d="M523 297h-163v-161h149v-138h-432v138h150v161h-164v132h164v164h133v-164h163v-132z" />
    <glyph glyph-name="approxequal" unicode="&#x2248;" 
d="M345 359.5q-22 9.5 -52 27.5q-23 15 -39 22t-32 7q-57 0 -58 -63h-123q2 87 41 140t111 53q28 0 50.5 -9.5t53.5 -27.5q22 -15 37.5 -22t32.5 -7q26 0 40.5 16t15.5 48h122q-1 -86 -40 -140t-111 -54q-27 0 -49 9.5zM345 120.5q-22 9.5 -52 27.5q-23 15 -39 22t-32 7
q-57 0 -58 -63h-123q2 87 41 140t111 53q28 0 50.5 -9.5t53.5 -27.5q22 -15 37.5 -22t32.5 -7q26 0 40.5 16t15.5 48h122q-1 -86 -40 -140t-111 -54q-27 0 -49 9.5z" />
    <glyph glyph-name="asciitilde" unicode="~" 
d="M343.5 237.5q-23.5 9.5 -50.5 27.5q-23 15 -39 22t-32 7q-57 0 -58 -63h-123q2 87 41 140t111 53q28 0 51.5 -10t52.5 -28q23 -14 38 -21t32 -7q55 0 56 64h122q-1 -86 -40 -140t-111 -54q-27 0 -50.5 9.5z" />
    <glyph glyph-name="logicalnot" unicode="&#xac;" 
d="M374 312h-302v132h435v-297h-133v165z" />
    <glyph glyph-name="asciicircum" unicode="^" 
d="M223 676h143l174 -337h-155l-91 194l-91 -194h-156z" />
    <glyph glyph-name="uni00B5" unicode="&#xb5;" horiz-adv-x="634" 
d="M216 525v-280q0 -65 20.5 -94.5t72.5 -29.5q30 0 58 17t50 48v339h151v-525h-110l-22 68q-75 -80 -174 -80q-27 0 -46 13v-201l-150 -21v746h150z" />
    <glyph glyph-name="percent" unicode="%" horiz-adv-x="1054" 
d="M108.5 312.5q-49.5 54.5 -49.5 148.5q0 91 50 146t132 55q83 0 133 -54.5t50 -146.5q0 -93 -50 -148t-133 -55t-132.5 54.5zM694 657h151l-485 -657h-151zM309 460q0 99 -66 99q-35 0 -52 -26.5t-17 -72.5q0 -98 67 -98q68 0 68 98zM679.5 46.5q-49.5 54.5 -49.5 148.5
q0 92 50 147t132 55q83 0 133 -55t50 -147q0 -93 -50 -148t-133 -55t-132.5 54.5zM880 195q0 98 -66 98q-35 0 -52 -26t-17 -72q0 -99 67 -99q68 0 68 99z" />
    <glyph glyph-name="perthousand" unicode="&#x2030;" horiz-adv-x="1467" 
d="M108.5 312.5q-49.5 54.5 -49.5 148.5q0 91 50 146t132 55q83 0 133 -54.5t50 -146.5q0 -93 -50 -148t-133 -55t-132.5 54.5zM694 657h151l-485 -657h-151zM309 460q0 99 -66 99q-35 0 -52 -26.5t-17 -72.5q0 -98 67 -98q68 0 68 98zM679.5 46.5q-49.5 54.5 -49.5 148.5
q0 92 50 147t132 55q83 0 133 -55t50 -147q0 -93 -50 -148t-133 -55t-132.5 54.5zM1092.5 46.5q-49.5 54.5 -49.5 148.5q0 92 50 147t132 55q83 0 133 -55t50 -147q0 -93 -50 -148t-133 -55t-132.5 54.5zM880 195q0 98 -66 98q-35 0 -52 -26t-17 -72q0 -99 67 -99
q68 0 68 99zM1293 195q0 98 -66 98q-35 0 -52 -26t-17 -72q0 -99 67 -99q68 0 68 99z" />
    <glyph glyph-name="at" unicode="@" horiz-adv-x="989" 
d="M259.5 -119.5q-94.5 55.5 -148 153t-53.5 219.5q0 125 64 228t171 162t231 59q120 0 215 -43.5t149 -122.5t54 -181q0 -89 -40 -157t-106.5 -105t-144.5 -37h-54l-22 46q-52 -49 -116 -49q-80 0 -127 56t-47 151q0 59 26 106t70 74t98 27q28 0 57.5 -10.5t53.5 -30.5
l11 33h100v-302q63 14 99.5 64t36.5 133q0 74 -39 130t-109.5 86.5t-164.5 30.5q-98 0 -180 -44.5t-130.5 -124t-48.5 -178.5q0 -96 38.5 -170.5t108.5 -116.5t163 -42q68 0 116.5 17t94.5 50l62 -74q-53 -46 -120 -69.5t-154 -23.5q-120 0 -214.5 55.5zM567 207v128
q-29 19 -64 19q-40 0 -62.5 -25.5t-22.5 -73.5q0 -39 20 -62.5t56 -23.5q40 0 73 38z" />
    <glyph glyph-name="ampersand" unicode="&#x26;" horiz-adv-x="681" 
d="M161 14q-57 26 -89 73t-32 109q0 116 127 192q-20 30 -29 57t-9 58q0 53 28 95t78.5 66t115.5 24q114 0 204 -100l-89 -94q-27 30 -53.5 43.5t-62.5 13.5q-37 0 -58 -18t-21 -47q0 -22 16 -45t54 -65l36 -40l100 -117q25 50 25 109v36h124v-39q0 -55 -17 -107.5
t-49 -95.5l103 -122h-160l-35 38q-79 -50 -177 -50q-73 0 -130 26zM387 131l-149 168q-61 -40 -61 -93q0 -42 37 -67.5t96 -25.5q41 0 77 18z" />
    <glyph glyph-name="paragraph" unicode="&#xb6;" horiz-adv-x="632" 
d="M302 -49q46 0 70.5 28t24.5 79v599l151 21v-634q0 -110 -59.5 -171.5t-166.5 -61.5h-41v140h21zM122 249.5q-74 57.5 -74 158.5q0 93 57 153.5t157 76.5l67 11v-457q-133 0 -207 57.5z" />
    <glyph glyph-name="section" unicode="&#xa7;" horiz-adv-x="523" 
d="M172 -54q39 0 60.5 13t21.5 36q0 19 -13 35.5t-43 40.5l-72 57q-41 32 -62 68.5t-21 84.5t29.5 87t81.5 60q-22 35 -22 70q0 83 60 130.5t169 47.5h69v-126h-77q-40 0 -60.5 -13.5t-20.5 -37.5q0 -20 12.5 -36t42.5 -40l70 -57q83 -65 83 -151q0 -48 -29.5 -87t-80.5 -59
q24 -35 24 -72q0 -83 -61 -130t-169 -47h-76v126h84zM336.5 170q18.5 15 18.5 39q0 19 -10.5 35t-34.5 36l-75 63h-1q-30 -2 -48 -16.5t-18 -39.5q0 -35 45 -72l73 -61h1q31 1 49.5 16z" />
    <glyph glyph-name="copyright" unicode="&#xa9;" horiz-adv-x="800" 
d="M221 32q-81 44 -128 123.5t-47 182.5q0 100 47.5 180t128.5 125t177 45q97 0 178 -44.5t129 -124.5t48 -181q0 -102 -48 -181.5t-129.5 -124t-177.5 -44.5q-97 0 -178 44zM548.5 86.5q66.5 36.5 104.5 102t38 149.5t-38 150t-104.5 102.5t-149.5 36.5t-148.5 -37
t-103 -102.5t-37.5 -149.5q0 -86 37 -151t102.5 -101t149.5 -36q83 0 149.5 36.5zM265.5 196.5q-52.5 51.5 -52.5 141.5q0 54 25 98.5t69.5 69.5t100.5 25q41 0 79.5 -17.5t61.5 -47.5l-64 -68q-31 33 -71 33t-63.5 -25.5t-23.5 -67.5t23 -67.5t63 -25.5q44 0 79 35l62 -71
q-28 -30 -66 -47t-81 -17q-89 0 -141.5 51.5z" />
    <glyph glyph-name="registered" unicode="&#xae;" horiz-adv-x="580" 
d="M162 265q-58 31 -92 88t-34 130q0 71 34.5 128.5t92.5 89.5t127 32t127.5 -32t92.5 -89t34 -129q0 -73 -34.5 -129.5t-92.5 -88t-127 -31.5q-70 0 -128 31zM393 311q45 25 70.5 70t25.5 102q0 58 -25 103t-70.5 70t-103.5 25t-103.5 -25t-70.5 -70t-25 -103
q0 -57 25 -102t70.5 -70t103.5 -25t103 25zM298 608q45 0 72 -22.5t27 -58.5q0 -20 -10.5 -35.5t-28.5 -24.5q10 -9 22 -29l35 -70h-77l-18 36q-11 19 -18.5 25.5t-23.5 6.5h-20v-68h-69v240h109zM324 522q0 26 -34 26h-32v-51h32q34 0 34 25z" />
    <glyph glyph-name="trademark" unicode="&#x2122;" horiz-adv-x="927" 
d="M142 576h-114v100h330v-100h-112v-277h-104v277zM425 676h105l113 -198l114 198h105v-377h-105v206l-72 -135h-86l-73 134v-205h-101v377z" />
    <glyph glyph-name="degree" unicode="&#xb0;" horiz-adv-x="405" 
d="M125 401q-36 21 -57.5 57t-21.5 78t21.5 78t57.5 57.5t78 21.5t77.5 -21t56.5 -57.5t21 -78.5t-21 -78t-56.5 -57t-77.5 -21t-78 21zM245.5 492.5q17.5 17.5 17.5 43.5t-17.5 44t-42.5 18q-26 0 -43.5 -18t-17.5 -44t17.5 -43.5t43.5 -17.5q25 0 42.5 17.5z" />
    <glyph glyph-name="bar" unicode="|" horiz-adv-x="349" 
d="M96 735h158v-887h-158v887z" />
    <glyph glyph-name="brokenbar" unicode="&#xa6;" horiz-adv-x="349" 
d="M96 735h158v-335h-158v335zM96 184h158v-336h-158v336z" />
    <glyph glyph-name="dagger" unicode="&#x2020;" horiz-adv-x="404" 
d="M149 481h-114v101h114v94l105 19v-113h114v-101h-114v-203h-105v203z" />
    <glyph glyph-name="daggerdbl" unicode="&#x2021;" horiz-adv-x="419" 
d="M158 364h-114v91h114v55h-114v91h114v75l103 19v-94h114v-91h-114v-55h114v-91h-114v-86h-103v86z" />
    <glyph glyph-name="at.case" horiz-adv-x="989" 
d="M259.5 -51.5q-94.5 55.5 -148 153t-53.5 219.5q0 125 64 227.5t171 161.5t231 59q120 0 215 -43.5t149 -122.5t54 -181q0 -88 -40 -156t-107 -105.5t-144 -37.5h-54l-22 46q-54 -49 -116 -49q-80 0 -127 56t-47 152q0 58 26 105.5t70 74.5t97 27q28 0 57.5 -11t54.5 -31
l11 33h100v-302q64 13 101.5 63.5t37.5 134.5q0 75 -39.5 132t-111.5 88t-165 31q-98 0 -181 -45.5t-132 -126t-49 -179.5q0 -96 39 -172t110 -118.5t164 -42.5q68 0 117.5 17.5t94.5 51.5l60 -72q-104 -93 -273 -93q-120 0 -214.5 55.5zM567 273v129q-29 20 -65 20
q-39 0 -62.5 -26t-23.5 -73q0 -40 20.5 -64t56.5 -24q41 0 74 38z" />
    <glyph glyph-name="uni0308" unicode="&#x308;" horiz-adv-x="0" 
d="M-462 617.5q-23 20.5 -23 53.5t23 53.5t58 20.5t58 -20.5t23 -53.5t-23 -53.5t-58 -20.5t-58 20.5zM-241.5 617.5q-22.5 20.5 -22.5 53.5t22.5 53.5t57.5 20.5t58 -20.5t23 -53.5t-23 -53.5t-58 -20.5t-57.5 20.5z" />
    <glyph glyph-name="uni0307" unicode="&#x307;" horiz-adv-x="0" 
d="M-357 616.5q-25 22.5 -25 58.5q0 35 25 57.5t63 22.5t63.5 -22.5t25.5 -57.5q0 -36 -25 -58.5t-64 -22.5q-38 0 -63 22.5z" />
    <glyph glyph-name="gravecomb" unicode="&#x300;" horiz-adv-x="0" 
d="M-436 749h153l132 -148h-139z" />
    <glyph glyph-name="acutecomb" unicode="&#x301;" horiz-adv-x="0" 
d="M-305 749h154l-146 -148h-139z" />
    <glyph glyph-name="uni0302" unicode="&#x302;" horiz-adv-x="0" 
d="M-359 749h131l130 -148h-126l-70 73l-70 -73h-126z" />
    <glyph glyph-name="uni030C" unicode="&#x30c;" horiz-adv-x="0" 
d="M-490 749h127l69 -74l71 74h125l-130 -148h-131z" />
    <glyph glyph-name="uni030A" unicode="&#x30a;" horiz-adv-x="0" 
d="M-359 608q-30 17 -47.5 46.5t-17.5 64.5q0 54 38.5 91t92.5 37q35 0 65 -17t47.5 -46t17.5 -65t-17.5 -65t-47.5 -46t-65 -17q-36 0 -66 17zM-256 680q15 16 15 39t-15 38t-37 15q-23 0 -37.5 -15t-14.5 -38t15 -39t37 -16t37 16z" />
    <glyph glyph-name="tildecomb" unicode="&#x303;" horiz-adv-x="0" 
d="M-251 602.5q-18 6.5 -41 19.5q-22 14 -38.5 21t-34.5 7q-25 0 -47.5 -9t-48.5 -27v98q26 19 48.5 29t48.5 10q24 0 42 -6.5t42 -20.5q28 -15 42 -21t31 -6q29 0 50.5 9.5t47.5 27.5v-100q-27 -18 -49.5 -28t-51.5 -10q-23 0 -41 6.5z" />
    <glyph glyph-name="uni0327" unicode="&#x327;" horiz-adv-x="0" 
d="M-362 -107q28 0 43.5 11t15.5 32q0 20 -8.5 34.5t-32.5 41.5l77 26q36 -30 54 -57t18 -62q0 -57 -44 -89t-119 -32h-35v95h31z" />
    <glyph glyph-name="dieresis" unicode="&#xa8;" horiz-adv-x="588" 
d="M126 617.5q-23 20.5 -23 53.5t23 53.5t58 20.5t58 -20.5t23 -53.5t-23 -53.5t-58 -20.5t-58 20.5zM346.5 617.5q-22.5 20.5 -22.5 53.5t22.5 53.5t57.5 20.5t58 -20.5t23 -53.5t-23 -53.5t-58 -20.5t-57.5 20.5z" />
    <glyph glyph-name="dotaccent" unicode="&#x2d9;" horiz-adv-x="588" 
d="M231 616.5q-25 22.5 -25 58.5q0 35 25 57.5t63 22.5t63.5 -22.5t25.5 -57.5q0 -36 -25 -58.5t-64 -22.5q-38 0 -63 22.5z" />
    <glyph glyph-name="grave" unicode="`" horiz-adv-x="588" 
d="M152 749h153l132 -148h-139z" />
    <glyph glyph-name="acute" unicode="&#xb4;" horiz-adv-x="588" 
d="M283 749h154l-146 -148h-139z" />
    <glyph glyph-name="circumflex" unicode="&#x2c6;" horiz-adv-x="588" 
d="M229 749h131l130 -148h-126l-70 73l-70 -73h-126z" />
    <glyph glyph-name="caron" unicode="&#x2c7;" horiz-adv-x="588" 
d="M98 749h127l69 -74l71 74h125l-130 -148h-131z" />
    <glyph glyph-name="ring" unicode="&#x2da;" horiz-adv-x="588" 
d="M229 608q-30 17 -47.5 46.5t-17.5 64.5q0 54 38.5 91t92.5 37q35 0 65 -17t47.5 -46t17.5 -65t-17.5 -65t-47.5 -46t-65 -17q-36 0 -66 17zM332 680q15 16 15 39t-15 38t-37 15q-23 0 -37.5 -15t-14.5 -38t15 -39t37 -16t37 16z" />
    <glyph glyph-name="tilde" unicode="&#x2dc;" horiz-adv-x="588" 
d="M337 602.5q-18 6.5 -41 19.5q-22 14 -38.5 21t-34.5 7q-25 0 -47.5 -9t-48.5 -27v98q26 19 48.5 29t48.5 10q24 0 42 -6.5t42 -20.5q28 -15 42 -21t31 -6q29 0 50.5 9.5t47.5 27.5v-100q-27 -18 -49.5 -28t-51.5 -10q-23 0 -41 6.5z" />
    <glyph glyph-name="cedilla" unicode="&#xb8;" horiz-adv-x="588" 
d="M226 -107q28 0 43.5 11t15.5 32q0 20 -8.5 34.5t-32.5 41.5l77 26q36 -30 54 -57t18 -62q0 -57 -44 -89t-119 -32h-35v95h31z" />
    <glyph glyph-name="uni0308.case" horiz-adv-x="0" 
d="M-464.5 755q-23.5 21 -23.5 54t23 54t58 21q36 0 59.5 -21t23.5 -54t-23.5 -54t-59.5 -21q-34 0 -57.5 21zM-240.5 755q-23.5 21 -23.5 54t23.5 54t59.5 21q35 0 58 -21t23 -54t-23 -54t-58 -21q-36 0 -59.5 21z" />
    <glyph glyph-name="uni0307.case" horiz-adv-x="0" 
d="M-358.5 756.5q-25.5 22.5 -25.5 58.5t25.5 59.5t64.5 23.5t65 -23.5t26 -59.5t-25.5 -58.5t-65.5 -22.5q-39 0 -64.5 22.5z" />
    <glyph glyph-name="gravecomb.case" horiz-adv-x="0" 
d="M-444 889h161l140 -147h-145z" />
    <glyph glyph-name="acutecomb.case" horiz-adv-x="0" 
d="M-304 889h161l-156 -147h-145z" />
    <glyph glyph-name="uni0302.case" horiz-adv-x="0" 
d="M-362 889h137l136 -147h-134l-70 71l-72 -71h-134z" />
    <glyph glyph-name="uni030C.case" horiz-adv-x="0" 
d="M-499 889h135l70 -72l72 72h133l-137 -147h-136z" />
    <glyph glyph-name="uni030A.case" horiz-adv-x="0" 
d="M-363 753q-32 18 -50.5 48.5t-18.5 66.5q0 37 18.5 67.5t50.5 48t70 17.5q37 0 69 -17.5t50.5 -48t18.5 -67.5q0 -36 -19 -66.5t-50.5 -48.5t-68.5 -18q-38 0 -70 18zM-254 828.5q16 16.5 16 39.5q0 24 -16 39.5t-39 15.5q-24 0 -40 -15.5t-16 -39.5t16 -40t40 -16
q23 0 39 16.5z" />
    <glyph glyph-name="tildecomb.case" horiz-adv-x="0" 
d="M-250 743.5q-19 6.5 -43 19.5q-25 14 -40.5 20.5t-35.5 6.5q-27 0 -50.5 -9t-52.5 -27v103q27 18 51.5 27.5t52.5 9.5q26 0 46 -6.5t43 -19.5q5 -2 21 -10.5t29 -12t26 -3.5q31 0 54 9.5t51 27.5v-104q-26 -18 -51 -28t-57 -10q-25 0 -44 6.5z" />
    <glyph glyph-name="uni0327.case" horiz-adv-x="0" 
d="M-372 -110q31 0 49.5 11.5t18.5 32.5q0 20 -10.5 36.5t-36.5 42.5l86 27q40 -33 59.5 -61.5t19.5 -63.5q0 -60 -48.5 -93.5t-133.5 -33.5h-39v102h35z" />
    <glyph glyph-name="gravecomb.narrow.case" horiz-adv-x="0" 
d="M-431 889h151l112 -147h-138z" />
    <glyph glyph-name="acutecomb.narrow.case" horiz-adv-x="0" 
d="M-319 889h151l-125 -147h-138z" />
    <glyph glyph-name="gravecomb.narrow" horiz-adv-x="0" 
d="M-429 749h151l107 -148h-136z" />
    <glyph glyph-name="acutecomb.narrow" horiz-adv-x="0" 
d="M-322 749h151l-122 -148h-136z" />
    <glyph glyph-name="periodsuperior" horiz-adv-x="198" 
d="M47 344.5q-21 20.5 -21 51.5t21 51t52 20q32 0 52.5 -20t20.5 -51t-20.5 -51.5t-52.5 -20.5q-31 0 -52 20.5z" />
    <glyph glyph-name="commasuperior" horiz-adv-x="198" 
d="M53 458h118q-5 -45 -20.5 -94.5t-39.5 -90.5h-104q36 101 46 185z" />
    </font>
</defs>
</svg>
